<?xml version="1.0" standalone="no"?>
<!DOCTYPE svg PUBLIC "-//W3C//DTD SVG 1.1//EN" "http://www.w3.org/Graphics/SVG/1.1/DTD/svg11.dtd">
<svg xmlns="http://www.w3.org/2000/svg">
<defs >
<font id="SourceCodePro" horiz-adv-x="600" ><font-face
    font-family="Source Code Pro"
    units-per-em="1000"
    panose-1="2 11 7 9 3 4 3 2 2 4"
    ascent="984"
    descent="-273"
    alphabetic="0" />
<glyph unicode=" " glyph-name="space" />
<glyph unicode="!" glyph-name="exclam" d="M252 255L232 537L227 670H373L368 537L348 255H252ZM300 -12Q257 -12 229 16T200 90Q200 135 228 162T300 190Q343 190 371 163T400 90Q400 45 372 17T300 -12Z" />
<glyph unicode="&quot;" glyph-name="quotedbl" d="M123 303L88 540L83 685H253L248 540L213 303H123ZM388 303L353 540L348 685H518L513 540L478 303H388Z" />
<glyph unicode="#" glyph-name="numbersign" d="M311 0L334 187H230L207 0H122L145 187H70V281H157L170 391H90V485H182L202 650H286L266 485H371L391 650H475L455 485H534V391H444L430 281H514V187H419L396 0H311ZM346 281L359 391H255L241 281H346Z" />
<glyph unicode="$" glyph-name="dollar" d="M64 115L128 215Q176 186 218 170T309 153Q345 153 364 165T383 198Q383 219 362 233T308 260T237 287T167 322T113 374T91 451Q91 516 135 559T255 614V745H353V615Q405 608 443 587T513 533L440 449Q405 474 374 486T301
499Q232 499 232 453Q232 435 253 423T307 399T377 373T447 338T501 285T523 209Q523 146 480 100T353 39V-110H255V36Q206 41 154 61T64 115Z" />
<glyph unicode="%" glyph-name="percent" d="M174 312Q142 312 115 324T68 358T37 411T26 481Q26 520 37 551T68 603T115 636T174 648Q206 648 233 637T280 604T311 551T322 481Q322 442 311 411T280 358T233 324T174 312ZM174 391Q193 391 207 410T222 481Q222
532 208 550T174 569Q155 569 141 551T126 481Q126 430 140 411T174 391ZM93 28L18 101L204 274L255 227L93 28ZM398 377L347 425L509 624L584 551L398 377ZM427 -12Q395 -12 368 0T321 34T290 87T279 157Q279 196 290 227T321 279T368 312T427 324Q459 324 486
313T533 280T564 227T575 157Q575 118 564 87T533 34T486 0T427 -12ZM427 67Q446 67 460 86T475 157Q475 208 461 226T427 245Q408 245 394 227T379 157Q379 106 393 87T427 67Z" />
<glyph unicode="&amp;" glyph-name="ampersand" d="M232 -12Q181 -12 142 3T77 43T37 102T23 174Q23 206 31 232T54 280T88 320T128 353Q108 391 97 426T86 493Q86 528 97 559T129 613T180 650T247 664Q321 664 362 624T404 516Q404 485 393 460T365 412T325 371T280
334Q304 303 334 274T397 218Q415 250 429 287T452 368H586Q571 308 549 254T495 148Q546 116 586 107L551 -12Q483 4 413 51Q376 22 332 5T232 -12ZM207 494Q207 460 226 419Q254 439 272 462T291 516Q291 539 282 553T250 567Q231 567 219 548T207 494ZM251 100Q283
100 315 123Q280 153 249 186T191 256Q177 239 170 221T162 183Q162 146 186 123T251 100Z" />
<glyph unicode="&apos;" glyph-name="quotesingle" d="M255 303L220 540L215 685H385L380 540L345 303H255Z" />
<glyph unicode="(" glyph-name="parenleft" d="M392 -179Q294 -92 238 22T181 278Q181 420 237 534T392 735L474 670Q385 583 345 490T304 278Q304 219 314 167T344 66T397 -26T474 -114L392 -179Z" />
<glyph unicode=")" glyph-name="parenright" d="M208 -179L126 -114Q171 -71 203 -27T255 66T286 166T296 278Q296 396 256 489T126 670L208 735Q306 648 362 534T419 278Q419 136 363 22T208 -179Z" />
<glyph unicode="*" glyph-name="asterisk" d="M184 91L120 135L217 292L64 360L87 431L249 388L261 566H339L351 388L513 431L536 360L383 292L480 135L416 91L300 233L184 91Z" />
<glyph unicode="+" glyph-name="plus" d="M246 94V278H70V382H246V566H354V382H530V278H354V94H246Z" />
<glyph unicode="," glyph-name="comma" d="M219 -217L182 -131Q249 -108 281 -72T312 11Q308 10 301 10Q280 10 261 16T226 36T202 68T193 112Q193 159 225 187T305 215Q367 215 398 170T429 43Q429 -53 376 -119T219 -217Z" />
<glyph unicode="-" glyph-name="hyphen" d="M70 278V382H530V278H70Z" />
<glyph unicode="." glyph-name="period" d="M300 -12Q248 -12 216 21T184 105Q184 130 192 151T216 189T252 214T300 223Q326 223 347 214T384 189T407 152T416 105Q416 55 384 22T300 -12Z" />
<glyph unicode="/" glyph-name="slash" d="M74 -160L403 710H526L197 -160H74Z" />
<glyph unicode="0" glyph-name="zero" d="M300 -12Q245 -12 200 9T123 73T74 177T56 320Q56 401 73 462T123 564T200 626T300 647Q355 647 400 627T477 565T526 462T544 320Q544 239 527 177T477 73T400 10T300 -12ZM300 102Q324 102 344 113T380 149T404 216T413
320Q413 382 404 423T380 488T345 523T300 533Q276 533 256 523T220 489T196 423T187 320Q187 258 196 217T220 150T255 113T300 102ZM300 246Q268 246 247 266T225 322Q225 357 246 377T300 398Q332 398 353 378T375 322Q375 287 354 267T300 246Z" />
<glyph unicode="1" glyph-name="one" d="M79 0V119H250V486H109V577Q141 582 166 587T213 600T252 615T289 635H397V119H541V0H79Z" />
<glyph unicode="2" glyph-name="two" d="M58 0V84Q126 141 182 190T278 283T340 364T362 436Q362 483 335 507T258 532Q220 532 189 513T130 467L51 546Q76 571 100 590T152 621T210 640T278 647Q328 647 369 633T439 592T485 528T502 445Q502 405 483 364T432
281T357 198T269 116Q296 119 327 121T384 124H535V0H58Z" />
<glyph unicode="3" glyph-name="three" d="M279 -12Q197 -12 138 12T42 78L110 171Q142 143 181 125T265 107Q317 107 350 126T384 182Q384 203 375 220T344 248T285 266T192 273V377Q286 377 324 400T363 462Q363 495 338 513T269 532Q231 532 199 517T134 476L60
566Q107 604 160 625T276 647Q328 647 371 636T445 602T493 547T510 473Q510 423 478 389T389 332V328Q449 312 490 274T531 173Q531 129 511 95T456 37T375 1T279 -12Z" />
<glyph unicode="4" glyph-name="four" d="M341 0V152H35V253L300 635H478V264H558V152H478V0H341ZM177 264H341V371Q341 401 342 440T346 510H342Q326 483 308 456T273 402L177 264Z" />
<glyph unicode="5" glyph-name="five" d="M283 -12Q200 -12 143 13T46 77L112 170Q144 144 180 126T262 107Q316 107 350 132T385 206Q385 254 353 279T269 304Q253 304 241 303T216 297T191 287T162 272L97 314L114 635H503V511H241L230 392Q252 400 271 403T314
407Q358 407 397 395T467 359T514 298T532 210Q532 157 512 116T457 47T377 3T283 -12Z" />
<glyph unicode="6" glyph-name="six" d="M317 -12Q268 -12 222 6T140 62T82 159T60 303Q60 392 83 457T144 564T232 626T334 647Q402 647 453 625T536 571L459 483Q439 501 409 514T347 528Q318 528 292 518T245 484T211 422T196 328Q230 361 271 379T349 397Q391
397 426 385T488 349T530 288T545 201Q545 151 527 112T477 45T404 3T317 -12ZM314 98Q333 98 350 104T381 122T403 154T411 201Q411 250 385 271T317 293Q289 293 259 279T200 231Q206 193 217 168T244 127T277 105T314 98Z" />
<glyph unicode="7" glyph-name="seven" d="M193 0Q197 79 208 145T241 272T297 390T381 511H62V635H539V545Q479 478 442 420T384 299T354 165T341 0H193Z" />
<glyph unicode="8" glyph-name="eight" d="M299 -12Q244 -12 200 0T125 36T78 91T61 162Q61 191 70 214T96 257T134 291T181 318V322Q141 350 115 385T88 472Q88 512 104 544T148 600T217 635T304 647Q352 647 390 635T456 600T497 545T512 473Q512 428 486 393T421
334V330Q446 318 468 303T506 267T531 222T540 164Q540 126 524 94T478 39T402 2T299 -12ZM343 370Q391 413 391 463Q391 500 368 522T301 545Q266 545 242 527T217 472Q217 433 252 411T343 370ZM303 90Q348 90 375 109T403 169Q403 191 392 206T361 233T312 256T250
280Q223 260 206 235T188 179Q188 137 221 114T303 90Z" />
<glyph unicode="9" glyph-name="nine" d="M282 342Q311 342 341 356T399 405Q393 442 382 467T355 508T321 530T284 537Q265 537 248 531T217 513T195 481T187 434Q187 385 213 364T282 342ZM265 -12Q197 -12 146 11T62 64L140 152Q160 134 190 121T252 107Q281
107 307 117T354 151T388 213T403 308Q368 275 327 257T250 238Q208 238 172 250T110 286T68 347T53 434Q53 483 71 522T121 590T194 632T281 647Q330 647 376 629T459 573T516 476T538 332Q538 243 515 178T454 71T367 9T265 -12Z" />
<glyph unicode=":" glyph-name="colon" d="M300 311Q248 311 216 344T184 428Q184 453 192 474T216 512T252 537T300 546Q326 546 347 537T384 512T407 475T416 428Q416 378 384 345T300 311ZM300 -12Q248 -12 216 21T184 105Q184 130 192 151T216 189T252 214T300
223Q326 223 347 214T384 189T407 152T416 105Q416 55 384 22T300 -12Z" />
<glyph unicode=";" glyph-name="semicolon" d="M300 311Q248 311 216 344T184 428Q184 453 192 474T216 512T252 537T300 546Q326 546 347 537T384 512T407 475T416 428Q416 378 384 345T300 311ZM219 -217L182 -131Q249 -108 281 -72T312 11Q308 10 301 10Q280
10 261 16T226 36T202 68T193 112Q193 159 225 187T305 215Q367 215 398 170T429 43Q429 -53 376 -119T219 -217Z" />
<glyph unicode="&lt;" glyph-name="less" d="M502 31L116 281V383L502 633V500L237 334V330L502 164V31Z" />
<glyph unicode="=" glyph-name="equal" d="M70 394V498H530V394H70ZM70 419V523H530V419H70Z" />
<glyph unicode="&gt;" glyph-name="greater" d="M98 31V164L363 330V334L98 500V633L484 383V281L98 31Z" />
<glyph unicode="?" glyph-name="question" d="M218 255Q212 288 220 314T244 362T278 400T315 433T344 465T356 500Q356 532 335 547T282 563Q251 563 227 550T180 517L98 592Q134 632 183 657T292 682Q335 682 372 672T437 642T481 591T497 519Q497 486 485 462T455
418T417 381T380 346T353 306T346 255H218ZM286 -12Q243 -12 215 16T186 90Q186 135 214 162T286 190Q329 190 357 163T386 90Q386 45 358 17T286 -12Z" />
<glyph unicode="@" glyph-name="at" d="M339 -147Q279 -147 224 -123T125 -50T57 75T31 253Q31 355 55 428T120 550T215 621T331 644Q388 644 429 625T497 573T537 496T550 399V100H472L461 151H457Q438 123 408 106T337 88Q310 88 287 99T246 129T220 173T210
228Q210 268 227 297T277 347T356 380T459 400V416Q459 444 451 469T427 513T386 544T328 556Q293 556 258 539T195 485T150 390T132 249Q132 171 150 114T197 18T265 -39T344 -58Q389 -58 418 -48T477 -20L519 -93Q477 -118 435 -132T339 -147ZM370 184Q392 184
409 193T444 220V312Q374 301 346 283T317 232Q317 209 331 197T370 184Z" />
<glyph unicode="A" glyph-name="A" d="M244 330L229 270H366L351 330Q338 379 324 433T299 540H295Q283 488 270 434T244 330ZM9 0L212 652H388L591 0H435L396 155H199L159 0H9Z" />
<glyph unicode="B" glyph-name="B" d="M74 0V652H293Q344 652 387 645T463 618T513 568T532 490Q532 468 526 446T505 405T470 371T420 349V345Q490 332 526 295T562 192Q562 142 543 106T490 47T411 12T312 0H74ZM221 390H286Q340 390 364 411T388 470Q388 506
364 521T287 537H221V390ZM221 115H300Q418 115 418 203Q418 246 390 265T300 284H221V115Z" />
<glyph unicode="C" glyph-name="C" d="M356 -12Q295 -12 241 9T145 73T79 177T54 322Q54 403 78 466T144 574T243 641T365 664Q427 664 477 639T560 581L479 490Q456 511 429 524T365 537Q330 537 301 523T251 481T217 415T205 327Q205 226 251 171T371 115Q406
115 435 131T489 173L570 84Q489 -12 356 -12Z" />
<glyph unicode="D" glyph-name="D" d="M70 0V652H250Q321 652 379 633T478 575T541 474T564 329Q564 245 542 183T480 81T383 20T259 0H70ZM218 119H242Q280 119 311 130T365 165T400 230T413 329Q413 387 401 426T366 489T312 523T242 533H218V119Z" />
<glyph unicode="E" glyph-name="E" d="M92 0V652H524V528H240V397H481V274H240V124H534V0H92Z" />
<glyph unicode="F" glyph-name="F" d="M105 0V652H538V528H252V377H496V253H252V0H105Z" />
<glyph unicode="G" glyph-name="G" d="M343 -12Q280 -12 226 9T131 73T67 177T44 322Q44 404 67 467T131 574T227 641T345 664Q411 664 457 639T536 581L455 490Q434 511 409 524T345 537Q313 537 286 523T239 481T208 415T196 327Q196 226 234 171T351 115Q370
115 387 120T415 135V247H320V367H547V67Q514 36 460 12T343 -12Z" />
<glyph unicode="H" glyph-name="H" d="M64 0V652H211V401H389V652H536V0H389V272H211V0H64Z" />
<glyph unicode="I" glyph-name="I" d="M74 0V124H226V528H74V652H526V528H374V124H526V0H74Z" />
<glyph unicode="J" glyph-name="J" d="M273 -12Q246 -12 217 -7T160 12T106 45T59 96L144 187Q201 115 268 115Q319 115 344 140T369 234V529H114V652H516V222Q516 174 504 132T462 57T387 7T273 -12Z" />
<glyph unicode="K" glyph-name="K" d="M68 0V652H217V385H220L413 652H576L380 393L594 0H431L292 277L217 178V0H68Z" />
<glyph unicode="L" glyph-name="L" d="M107 0V652H254V124H544V0H107Z" />
<glyph unicode="M" glyph-name="M" d="M58 0V652H212L276 421L298 331H302L324 421L388 652H542V0H418V202Q418 229 420 270T425 354T431 437T437 504H434L384 330L334 173H262L211 330L164 504H161Q164 478 167 438T173 354T178 270T180 202V0H58Z" />
<glyph unicode="N" glyph-name="N" d="M66 0V652H217L354 328L410 184H414Q409 236 401 299T393 421V652H534V0H383L246 325L190 467H186Q191 413 199 351T207 231V0H66Z" />
<glyph unicode="O" glyph-name="O" d="M300 -12Q242 -12 194 10T111 75T57 181T38 329Q38 411 57 473T110 578T193 642T300 664Q358 664 406 643T489 579T543 474T562 329Q562 245 543 182T490 75T407 10T300 -12ZM300 115Q351 115 381 169T411 329Q411 431 381
484T300 537Q249 537 219 484T189 329Q189 223 219 169T300 115Z" />
<glyph unicode="P" glyph-name="P" d="M75 0V652H306Q359 652 405 642T486 607T541 542T561 442Q561 385 541 343T485 274T404 234T306 221H222V0H75ZM222 338H297Q417 338 417 442Q417 493 387 514T297 535H222V338Z" />
<glyph unicode="Q" glyph-name="Q" d="M300 108Q351 108 381 161T411 329Q411 431 381 484T300 537Q249 537 219 484T189 329Q189 215 219 162T300 108ZM487 -178Q439 -178 399 -165T327 -129T271 -74T232 -4Q144 19 92 102T39 329Q39 411 58 473T111 578T194
642T300 664Q358 664 406 643T488 579T542 474T561 329Q561 194 514 112T385 2Q403 -33 436 -46T505 -60Q520 -60 533 -56T557 -47L583 -157Q566 -166 543 -172T487 -178Z" />
<glyph unicode="R" glyph-name="R" d="M70 0V652H301Q353 652 398 642T478 609T533 546T553 449Q553 377 521 331T437 261L584 0H419L294 235H217V0H70ZM217 352H289Q408 352 408 449Q408 497 378 516T289 535H217V352Z" />
<glyph unicode="S" glyph-name="S" d="M298 -12Q232 -12 168 11T50 82L135 183Q172 153 216 134T308 115Q356 115 378 131T400 172Q400 189 393 200T373 221T341 238T299 256L215 292Q188 302 163 318T118 355T88 405T76 470Q76 510 93 545T142 607T218 649T315
664Q375 664 431 642T532 578L457 485Q423 510 389 523T307 537Q270 537 248 522T225 478Q225 449 254 434T332 401L411 367Q476 343 513 301T551 190Q551 149 534 113T485 49T406 5T298 -12Z" />
<glyph unicode="T" glyph-name="T" d="M226 0V528H31V652H569V528H374V0H226Z" />
<glyph unicode="U" glyph-name="U" d="M302 -12Q182 -12 123 55T64 251V652H211V236Q211 177 233 146T302 115Q349 115 371 146T394 236V652H536V251Q536 123 479 56T302 -12Z" />
<glyph unicode="V" glyph-name="V" d="M212 0L15 652H171L249 348Q264 294 275 244T301 139H305Q320 193 332 243T358 348L435 652H585L389 0H212Z" />
<glyph unicode="W" glyph-name="W" d="M91 0L4 652H157L177 305Q178 263 178 225T180 141H184Q191 186 199 224T216 305L260 487H354L395 305Q403 264 411 225T427 141H431Q432 186 432 225T435 305L453 652H596L516 0H358L320 202Q314 233 309 265T302 326H299Q296
297 292 265T282 202L244 0H91Z" />
<glyph unicode="X" glyph-name="X" d="M18 0L208 335L29 652H194L257 529Q268 506 280 481T307 424H311Q323 455 333 480T355 529L413 652H571L392 328L582 0H418L347 133Q333 159 321 184T295 240H291Q279 210 267 185T243 133L175 0H18Z" />
<glyph unicode="Y" glyph-name="Y" d="M226 0V220L16 652H174L240 495Q254 457 269 421T299 346H303Q319 385 334 421T364 495L430 652H584L374 220V0H226Z" />
<glyph unicode="Z" glyph-name="Z" d="M56 0V89L361 529H85V652H543V563L238 124H547V0H56Z" />
<glyph unicode="[" glyph-name="bracketleft" d="M200 -152V708H496V630H312V-74H496V-152H200Z" />
<glyph unicode="\" glyph-name="backslash" d="M403 -160L74 710H197L526 -160H403Z" />
<glyph unicode="]" glyph-name="bracketright" d="M104 -152V-74H288V630H104V708H400V-152H104Z" />
<glyph unicode="^" glyph-name="asciicircum" d="M86 274L241 670H359L514 274H393L347 402L302 537H298L253 402L207 274H86Z" />
<glyph unicode="_" glyph-name="underscore" d="M60 -164V-54H540V-164H60Z" />
<glyph unicode="`" glyph-name="grave" d="M306 561L125 717L225 815L378 633L306 561Z" />
<glyph unicode="a" glyph-name="a" d="M224 -12Q186 -12 156 -1T105 31T73 79T61 138Q61 180 79 211T136 265T238 300T388 319Q384 353 359 372T282 391Q246 391 210 379T131 345L79 441Q130 470 188 489T311 508Q415 508 475 453T535 284V0H415L404 56H400Q362
27 317 8T224 -12ZM271 102Q304 102 333 115T388 149V231Q333 228 297 221T240 204T211 179T202 149Q202 125 220 114T271 102Z" />
<glyph unicode="b" glyph-name="b" d="M338 -12Q303 -12 269 5T203 54H199L187 0H72V701H219V529L214 451H217Q245 478 281 493T353 508Q399 508 436 490T499 440T539 361T553 257Q553 193 535 143T487 59T419 6T338 -12ZM305 108Q346 108 374 142T402 254Q402
388 311 388Q264 388 219 342V141Q240 123 262 116T305 108Z" />
<glyph unicode="c" glyph-name="c" d="M343 -12Q284 -12 234 5T147 56T88 137T67 248Q67 310 90 358T153 440T245 490T354 508Q413 508 460 489T540 441L472 350Q417 389 362 389Q298 389 258 351T218 248Q218 183 256 145T357 107Q396 107 428 121T488 154L547
61Q502 23 448 6T343 -12Z" />
<glyph unicode="d" glyph-name="d" d="M256 -12Q209 -12 171 6T105 57T62 139T47 248Q47 309 65 357T112 438T180 490T259 508Q301 508 330 495T384 455H388L381 532V701H528V0H408L397 51H394Q366 24 330 6T256 -12ZM294 108Q319 108 340 118T381 154V355Q361
373 341 380T298 388Q257 388 228 354T198 250Q198 176 223 142T294 108Z" />
<glyph unicode="e" glyph-name="e" d="M330 -12Q272 -12 222 5T134 56T76 137T55 248Q55 309 76 357T134 439T216 490T313 508Q370 508 414 490T487 440T532 365T547 270Q547 250 545 232T540 204H202Q213 150 251 125T350 100Q384 100 414 109T478 135L527 46Q484
19 432 4T330 -12ZM318 396Q274 396 245 373T204 303H416Q405 396 318 396Z" />
<glyph unicode="f" glyph-name="f" d="M213 0V381H82V490L213 496V509Q213 552 226 589T266 653T335 697T435 713Q478 713 515 705T585 686L557 578Q508 597 453 597Q405 597 383 576T360 510V496H531V381H360V0H213Z" />
<glyph unicode="g" glyph-name="g" d="M277 -211Q229 -211 188 -204T116 -181T69 -141T52 -84Q52 -23 129 15V19Q108 32 94 52T79 104Q79 129 95 154T138 197V201Q111 219 92 251T73 328Q73 373 90 406T137 462T204 496T285 508Q331 508 367 496H568V388H468Q476
377 483 360T490 323Q490 280 474 249T431 198T366 167T285 157Q253 157 217 167Q206 159 201 151T195 130Q195 110 215 102T279 93H371Q469 93 520 64T572 -32Q572 -71 551 -104T492 -160T399 -197T277 -211ZM285 246Q316 246 338 266T360 328Q360 367 338 388T285
409Q254 409 233 388T211 328Q211 287 232 267T285 246ZM298 -118Q358 -118 395 -101T432 -58Q432 -34 410 -27T345 -20H283Q256 -20 239 -19T207 -13Q188 -25 180 -36T172 -62Q172 -90 205 -104T298 -118Z" />
<glyph unicode="h" glyph-name="h" d="M72 0V701H219V529L211 434H214Q242 463 282 485T379 508Q463 508 501 454T540 306V0H393V287Q393 337 377 360T320 383Q290 383 268 370T219 331V0H72Z" />
<glyph unicode="i" glyph-name="i" d="M278 0V381H79V496H425V0H278ZM345 574Q302 574 275 598T247 663Q247 704 274 729T345 755Q388 755 415 730T443 663Q443 622 416 598T345 574Z" />
<glyph unicode="j" glyph-name="j" d="M195 -196Q149 -196 112 -187T42 -162L85 -57Q115 -71 139 -76T186 -81Q239 -81 258 -56T278 24V381H79V496H425V30Q425 -15 415 -56T378 -128T307 -177T195 -196ZM345 574Q302 574 275 598T247 663Q247 704 274 729T345
755Q388 755 415 730T443 663Q443 622 416 598T345 574Z" />
<glyph unicode="k" glyph-name="k" d="M76 0V701H223V296H227L409 496H570L381 294L585 0H426L296 203L223 125V0H76Z" />
<glyph unicode="l" glyph-name="l" d="M395 -12Q301 -12 254 43T206 194V585H50V701H353V188Q353 165 359 150T377 125T403 111T434 107Q451 107 469 110T511 123L544 15Q524 9 507 4T473 -4T437 -10T395 -12Z" />
<glyph unicode="m" glyph-name="m" d="M35 0V496H146L156 435H160Q174 465 199 486T267 508Q299 508 321 488T353 427Q367 461 393 484T463 508Q517 508 545 466T574 348V0H434V338Q434 361 428 372T407 383Q393 383 383 371T362 335V0H247V338Q247 383 219 383Q205
383 195 371T175 335V0H35Z" />
<glyph unicode="n" glyph-name="n" d="M72 0V496H192L203 430H207Q239 462 280 485T378 508Q462 508 501 454T540 306V0H393V287Q393 337 377 360T320 383Q290 383 268 370T219 331V0H72Z" />
<glyph unicode="o" glyph-name="o" d="M300 -12Q251 -12 206 5T125 56T68 137T47 248Q47 310 68 358T124 440T205 490T300 508Q349 508 394 491T475 440T532 359T553 248Q553 186 532 138T476 56T395 6T300 -12ZM300 107Q351 107 376 145T402 248Q402 313 377
351T300 389Q249 389 224 351T198 248Q198 183 223 145T300 107Z" />
<glyph unicode="p" glyph-name="p" d="M72 -184V496H192L203 446H206Q236 473 275 490T354 508Q400 508 437 490T500 439T539 360T553 256Q553 192 535 143T487 59T419 6T338 -12Q270 -12 216 42H212L219 -39V-184H72ZM304 108Q346 108 374 142T402 254Q402 388
311 388Q264 388 219 342V141Q240 123 262 116T304 108Z" />
<glyph unicode="q" glyph-name="q" d="M381 -184V-35L388 45H384Q359 20 325 4T256 -12Q209 -12 171 6T105 57T62 139T47 248Q47 309 65 357T112 438T180 490T259 508Q301 508 333 493T397 445H401L413 496H528V-184H381ZM294 108Q319 108 340 118T381 154V355Q361
373 341 380T298 388Q257 388 228 354T198 250Q198 176 223 142T294 108Z" />
<glyph unicode="r" glyph-name="r" d="M116 0V496H236L248 388H251Q288 449 340 478T452 508Q485 508 505 503T548 488L518 365Q495 372 477 375T430 379Q384 379 340 352T263 258V0H116Z" />
<glyph unicode="s" glyph-name="s" d="M296 -12Q229 -12 165 10T53 64L116 156Q162 127 212 112T316 97Q357 97 376 109T395 139Q395 149 390 157T371 171T333 184T273 198Q172 220 128 257T84 353Q84 387 100 416T145 465T217 496T312 508Q379 508 433 487T527
440L461 352Q423 375 382 387T299 399Q264 399 247 388T230 360Q230 339 256 330T345 307Q402 294 440 279T500 245T531 202T540 148Q540 114 524 85T478 35T402 1T296 -12Z" />
<glyph unicode="t" glyph-name="t" d="M388 -12Q329 -12 288 4T222 48T185 117T174 206V381H49V490L181 496L200 648H321V496H531V381H321V207Q321 150 346 127T426 103Q454 103 477 108T524 121L550 15Q517 5 478 -3T388 -12Z" />
<glyph unicode="u" glyph-name="u" d="M223 -12Q138 -12 100 42T62 190V496H209V209Q209 159 224 136T281 113Q309 113 330 125T378 170V496H525V0H405L394 71H390Q357 33 317 11T223 -12Z" />
<glyph unicode="v" glyph-name="v" d="M218 0L31 496H179L257 262Q269 224 280 186T302 109H306Q317 148 327 186T350 262L428 496H569L387 0H218Z" />
<glyph unicode="w" glyph-name="w" d="M85 0L4 496H146L177 266Q182 229 185 193T193 119H196Q201 157 206 194T219 266L250 430H357L389 266Q397 229 403 193T414 119H418Q423 157 425 193T432 266L460 496H596L520 0H347L320 161Q315 193 311 229T302 308H298Q295
276 291 242T281 161L255 0H85Z" />
<glyph unicode="x" glyph-name="x" d="M37 0L209 258L48 496H206L257 416Q268 395 282 374T309 331H313Q323 352 333 374T354 416L398 496H552L390 241L562 0H404L347 82Q333 103 319 125T290 168H286Q275 147 263 126T240 82L191 0H37Z" />
<glyph unicode="y" glyph-name="y" d="M143 -194Q121 -194 102 -192T67 -184L93 -72Q112 -78 132 -78Q175 -78 199 -60T236 -13L246 13L31 496H177L260 283Q274 248 286 211T310 134H314Q324 171 336 208T359 283L432 496H571L375 -5Q357 -52 336 -87T288 -146T226
-182T143 -194Z" />
<glyph unicode="z" glyph-name="z" d="M70 0V79L329 381H101V496H533V418L273 115H540V0H70Z" />
<glyph unicode="{" glyph-name="braceleft" d="M419 -152Q323 -152 278 -122T233 -10Q233 17 234 38T238 78T241 117T243 161Q243 174 237 187T215 210T173 227T106 235V321Q146 322 172 328T215 345T237 369T243 395Q243 418 242 438T238 477T235 518T233 566Q233
647 278 677T419 708H496V630H455Q424 630 404 627T373 616T358 595T353 560Q353 520 355 481T358 397Q358 340 335 315T258 280V276Q312 267 335 242T358 159Q358 113 356 75T353 -4Q353 -25 357 -38T373 -60T404 -71T455 -74H496V-152H419Z" />
<glyph unicode="|" glyph-name="bar" d="M235 -250V750H365V-250H235Z" />
<glyph unicode="}" glyph-name="braceright" d="M105 -152V-74H146Q177 -74 196 -71T227 -60T242 -39T247 -4Q247 37 245 75T243 159Q243 216 266 241T343 276V280Q289 289 266 314T243 397Q243 442 245 481T247 560Q247 581 243 594T227 616T197 627T146 630H105V708H182Q278
708 323 678T368 566Q368 540 367 519T363 478T359 438T357 395Q357 382 363 369T385 346T427 329T495 321V235Q454 234 428 228T385 211T363 187T357 161Q357 137 358 118T362 79T366 38T368 -10Q368 -91 323 -121T182 -152H105Z" />
<glyph unicode="~" glyph-name="asciitilde" d="M385 240Q354 240 331 252T289 278T252 304T213 316Q193 316 174 296T140 234L52 275Q84 353 126 386T215 420Q246 420 269 408T311 382T348 356T387 344Q408 344 427 364T460 426L548 385Q516 307 474 274T385 240Z" />
<glyph unicode="&#xa0;" glyph-name="uni00A0" />
<glyph unicode="&#xa1;" glyph-name="exclamdown" d="M227 -174L232 -41L252 241H348L368 -41L373 -174H227ZM300 306Q257 306 229 333T200 406Q200 451 228 479T300 508Q343 508 371 480T400 406Q400 361 372 334T300 306Z" />
<glyph unicode="&#xa2;" glyph-name="cent" d="M239 307Q239 262 257 230T311 182V432Q275 416 257 384T239 307ZM311 -41V54Q262 60 223 80T155 132T112 209T96 307Q96 360 112 403T157 477T225 529T311 558V655H392V562Q431 558 462 544T516 506L449 416Q419
440 392 443V171Q413 175 431 184T464 206L523 113Q494 88 460 74T392 54V-41H311Z" />
<glyph unicode="&#xa3;" glyph-name="sterling" d="M67 0V91Q119 111 152 150T185 244Q185 257 182 271H70V357L154 362Q146 382 141 402T135 442Q135 489 152 527T199 591T271 632T363 647Q425 647 469 626T549 566L470 486Q450 507 428 517T377 528Q329 528
302 505T274 434Q274 416 278 398T287 362H456V271H310Q311 264 311 258T312 243Q312 207 300 181T259 128V124H550V0H67Z" />
<glyph unicode="&#xa4;" glyph-name="currency" d="M109 63L36 137L117 219Q83 265 83 330Q83 362 91 389T116 439L36 521L109 595L198 505Q246 530 300 530Q352 530 402 505L491 595L564 521L483 439Q517 394 517 330Q517 297 508 270T482 219L564 137L491 63L401
154Q378 142 352 136T300 130Q245 130 199 154L109 63ZM300 232Q336 232 361 258T386 330Q386 375 361 401T300 428Q264 428 239 402T214 330Q214 285 239 259T300 232Z" />
<glyph unicode="&#xa5;" glyph-name="yen" d="M226 0V147H57V217H226V272H57V342H194L31 635H182L243 502Q257 469 271 436T300 371H304Q318 404 332 437T361 502L422 635H569L406 342H543V272H373V217H543V147H373V0H226Z" />
<glyph unicode="&#xa6;" glyph-name="brokenbar" d="M235 -250V190H365V-250H235ZM235 310V750H365V310H235Z" />
<glyph unicode="&#xa7;" glyph-name="section" d="M276 -84Q221 -84 168 -64T81 0L165 75Q216 24 276 24Q307 24 321 36T336 67Q336 86 317 100T268 127T204 155T140 192T91 247T71 326Q71 364 93 397T153 454Q139 471 132 491T124 537Q124 605 170 647T302 690Q360
690 406 670T484 625L416 533Q393 553 365 567T310 581Q256 581 256 542Q256 524 276 511T326 484T392 454T458 416T509 361T529 284Q529 239 508 207T445 151Q456 135 462 116T468 74Q468 40 456 11T419 -39T359 -72T276 -84ZM195 337Q195 313 211 297T252 267T309
241T369 212Q405 234 405 272Q405 296 389 312T348 342T293 368T232 395Q195 373 195 337Z" />
<glyph unicode="&#xa8;" glyph-name="dieresis" d="M189 571Q154 571 132 594T109 651Q109 686 131 709T189 732Q224 732 246 709T269 651Q269 617 247 594T189 571ZM411 571Q376 571 354 594T331 651Q331 686 353 709T411 732Q446 732 468 709T491 651Q491 617
469 594T411 571Z" />
<glyph unicode="&#xa9;" glyph-name="copyright" d="M300 -9Q243 -9 192 14T103 80T42 185T19 325Q19 403 41 464T102 567T192 632T300 655Q357 655 408 633T497 568T558 464T581 325Q581 247 559 186T498 81T408 14T300 -9ZM300 52Q349 52 389 71T457 127T501
213T517 325Q517 386 502 436T458 521T389 576T300 595Q251 595 211 576T143 522T99 436T83 325Q83 263 98 213T142 127T211 72T300 52ZM312 127Q274 127 243 141T188 180T152 242T139 324Q139 368 153 403T191 464T246 502T312 516Q351 516 377 502T424 467L369
406Q358 417 347 423T321 430Q284 430 265 400T245 324Q245 273 264 243T316 213Q335 213 348 219T376 237L423 169Q400 150 373 139T312 127Z" />
<glyph unicode="&#xaa;" glyph-name="ordfeminine" d="M255 367Q204 367 175 396T145 467Q145 518 195 549T358 587Q354 608 339 619T293 630Q270 630 245 623T193 601L156 669Q191 689 231 701T314 713Q382 713 421 677T460 563V375H377L369 411H367Q344 391
316 379T255 367ZM284 445Q307 445 324 452T358 472V528Q295 523 270 510T245 477Q245 460 256 453T284 445Z" />
<glyph unicode="&#xab;" glyph-name="guillemotleft" d="M214 25L43 179V325L214 479L276 424L149 252L276 80L214 25ZM479 25L308 179V325L479 479L541 424L414 252L541 80L479 25Z" />
<glyph unicode="&#xac;" glyph-name="logicalnot" d="M422 94V278H70V382H530V94H422Z" />
<glyph unicode="&#xad;" glyph-name="uni00AD" d="M70 278V382H530V278H70Z" />
<glyph unicode="&#xae;" glyph-name="registered" d="M299 311Q258 311 222 326T159 368T117 432T101 513Q101 557 116 594T159 658T222 700T299 715Q340 715 376 700T439 658T481 594T497 513Q497 469 482 432T439 368T376 326T299 311ZM299 360Q330 360 356
371T402 402T432 450T443 513Q443 548 433 576T403 624T357 655T299 666Q267 666 241 655T196 624T166 576T155 513Q155 478 165 450T195 402T241 371T299 360ZM218 416V613H307Q342 613 365 597T388 547Q388 530 380 516T353 493L395 416H335L305 476H276V416H218ZM276
516H296Q312 516 319 524T327 544Q327 555 320 562T297 570H276V516Z" />
<glyph unicode="&#xaf;" glyph-name="overscore" d="M152 592V685H448V592H152Z" />
<glyph unicode="&#xb0;" glyph-name="degree" d="M301 398Q271 398 245 408T199 438T168 484T156 542Q156 573 167 599T198 645T244 675T301 686Q331 686 357 676T403 646T434 600T445 542Q445 510 434 484T404 439T358 409T301 398ZM301 468Q331 468 349 488T368
542Q368 574 350 594T301 615Q271 615 253 595T234 542Q234 509 252 489T301 468Z" />
<glyph unicode="&#xb1;" glyph-name="plusminus" d="M246 158V294H70V398H246V566H354V398H530V294H354V158H246ZM70 0V104H530V0H70Z" />
<glyph unicode="&#xb2;" glyph-name="two.sups" d="M155 376L147 433Q236 499 287 545T338 627Q338 656 321 672T271 689Q226 689 190 641L129 697Q190 778 288 778Q357 778 399 744T442 646Q442 598 408 557T318 466H456V376H155Z" />
<glyph unicode="&#xb3;" glyph-name="three.sups" d="M298 364Q243 364 199 383T129 442L194 493Q213 467 236 457T286 446Q315 446 334 458T353 492Q353 518 329 530T250 543V605Q292 605 315 617T339 654Q339 674 323 684T280 695Q258 695 239 684T206 656L145
711Q177 746 213 762T299 778Q328 778 354 771T400 749T432 714T444 669Q444 637 429 616T378 579Q416 568 437 544T459 484Q459 457 446 435T411 397T359 373T298 364Z" />
<glyph unicode="&#xb4;" glyph-name="acute" d="M294 561L222 633L375 815L475 717L294 561Z" />
<glyph unicode="&#xb5;" glyph-name="uni00B5" d="M64 -196V496H211V209Q211 155 228 134T278 113Q307 113 330 129T376 188V496H524Q522 452 521 404T518 310T515 221T514 148Q514 125 524 116T549 107Q554 107 557 107T567 109L585 0Q573 -5 555 -8T511 -12Q462
-12 434 10T392 81H389Q369 38 338 16T271 -7Q252 -7 234 -3T202 18Q203 -42 205 -91T212 -196H64Z" />
<glyph unicode="&#xb6;" glyph-name="paragraph" d="M288 197Q239 197 196 211T119 255T67 328T48 429Q48 492 67 534T118 603T194 641T286 652H328V197H288ZM380 -80V652H526V-80H380Z" />
<glyph unicode="&#xb7;" glyph-name="middot" d="M300 236Q248 236 216 269T184 353Q184 378 192 399T216 437T252 462T300 471Q326 471 347 462T384 437T407 400T416 353Q416 303 384 270T300 236Z" />
<glyph unicode="&#xb8;" glyph-name="cedilla" d="M198 -239L187 -180Q246 -177 268 -167T290 -136Q290 -121 275 -111T213 -94L263 11H349L319 -61Q357 -70 376 -87T395 -136Q395 -187 344 -211T198 -239Z" />
<glyph unicode="&#xb9;" glyph-name="one.sups" d="M166 376V466H287V656H178V723Q202 726 220 729T254 738T282 749T310 766H395V466H500V376H166Z" />
<glyph unicode="&#xba;" glyph-name="ordmasculine" d="M300 367Q267 367 237 378T184 412T147 466T133 539Q133 580 146 612T183 666T237 701T300 713Q333 713 363 701T416 667T453 612T467 539Q467 498 454 467T417 413T363 379T300 367ZM300 450Q332 450 346
474T361 539Q361 581 347 605T300 629Q268 629 254 605T239 539Q239 498 253 474T300 450Z" />
<glyph unicode="&#xbb;" glyph-name="guillemotright" d="M122 25L60 80L187 252L60 424L122 479L293 325V179L122 25ZM387 25L325 80L452 252L325 424L387 479L558 325V179L387 25Z" />
<glyph unicode="&#xbc;" glyph-name="onequarter" d="M135 324V536H54V600Q73 603 87 606T113 613T136 622T159 636H242V324H135ZM92 28L17 101L203 274L254 227L92 28ZM397 377L346 425L508 624L583 551L397 377ZM448 0V61H288V112L384 324L460 295L383 127H448V215H542V127H593V61H542V0H448Z"
/>
<glyph unicode="&#xbd;" glyph-name="onehalf" d="M135 324V536H54V600Q73 603 87 606T113 613T136 622T159 636H242V324H135ZM92 28L17 101L203 274L254 227L92 28ZM397 377L346 425L508 624L583 551L397 377ZM314 0V55Q345 75 371 95T417 133T448 168T460 197Q460
216 449 227T416 238Q387 238 361 203L299 259Q328 288 360 306T433 324Q493 324 528 295T563 215Q563 180 538 148T482 87H574V0H314Z" />
<glyph unicode="&#xbe;" glyph-name="threequarters" d="M159 312Q128 312 93 320T23 354L64 420Q80 409 102 400T146 391Q163 391 175 398T188 420Q188 437 171 446T115 455V510Q144 510 160 517T176 542Q176 554 166 561T137 569Q120 569 103 561T71 544L29
606Q52 624 86 636T161 648Q186 648 207 642T245 624T270 596T280 559Q280 532 268 516T226 488Q261 478 276 459T292 412Q292 390 282 372T253 340T211 320T159 312ZM99 28L24 101L210 274L261 227L99 28ZM404 377L353 425L515 624L590 551L404 377ZM448 0V61H288V112L384
324L460 295L383 127H448V215H542V127H593V61H542V0H448Z" />
<glyph unicode="&#xbf;" glyph-name="questiondown" d="M308 -186Q265 -186 228 -176T163 -146T119 -95T103 -23Q103 10 115 34T145 78T183 115T220 150T247 190T254 241H382Q387 207 379 181T356 134T322 96T285 63T256 31T244 -4Q244 -35 265 -51T318 -67Q349
-67 373 -54T420 -21L502 -95Q466 -136 417 -161T308 -186ZM314 306Q271 306 243 333T214 406Q214 451 242 479T314 508Q357 508 385 480T414 406Q414 361 386 334T314 306Z" />
<glyph unicode="&#xc0;" glyph-name="Agrave" d="M244 330L229 270H366L351 330Q338 379 324 433T299 540H295Q283 488 270 434T244 330ZM9 0L212 652H388L591 0H435L396 155H199L159 0H9ZM337 680L153 799L231 894L402 754L337 680Z" />
<glyph unicode="&#xc1;" glyph-name="Aacute" d="M244 330L229 270H366L351 330Q338 379 324 433T299 540H295Q283 488 270 434T244 330ZM9 0L212 652H388L591 0H435L396 155H199L159 0H9ZM263 680L198 754L369 894L447 799L263 680Z" />
<glyph unicode="&#xc2;" glyph-name="Acircumflex" d="M244 330L229 270H366L351 330Q338 379 324 433T299 540H295Q283 488 270 434T244 330ZM9 0L212 652H388L591 0H435L396 155H199L159 0H9ZM194 685L130 724L220 835H380L470 724L406 685L302 769H298L194 685Z" />
<glyph unicode="&#xc3;" glyph-name="Atilde" d="M244 330L229 270H366L351 330Q338 379 324 433T299 540H295Q283 488 270 434T244 330ZM9 0L212 652H388L591 0H435L396 155H199L159 0H9ZM371 692Q344 692 324 701T288 721T259 741T234 750Q220 750 210 739T197
701L102 708Q106 784 141 818T229 852Q256 852 276 843T312 823T341 803T366 794Q380 794 390 805T403 843L498 836Q494 761 459 727T371 692Z" />
<glyph unicode="&#xc4;" glyph-name="Adieresis" d="M244 330L229 270H366L351 330Q338 379 324 433T299 540H295Q283 488 270 434T244 330ZM9 0L212 652H388L591 0H435L396 155H199L159 0H9ZM189 700Q157 700 137 721T116 773Q116 805 136 825T189 846Q221 846
242 826T263 773Q263 742 242 721T189 700ZM411 700Q379 700 358 721T337 773Q337 805 358 825T411 846Q443 846 463 826T484 773Q484 742 464 721T411 700Z" />
<glyph unicode="&#xc5;" glyph-name="Aring" d="M244 330L229 270H366L351 330Q338 379 324 433T299 540H295Q283 488 270 434T244 330ZM9 0L212 652H388L591 0H435L396 155H199L159 0H9ZM300 697Q249 697 218 724T186 796Q186 841 217 867T300 894Q351 894 382
868T414 796Q414 751 383 724T300 697ZM300 752Q317 752 329 764T342 796Q342 816 330 827T300 839Q283 839 271 828T258 796Q258 776 270 764T300 752Z" />
<glyph unicode="&#xc6;" glyph-name="AE" d="M255 356L227 263H311V541H308Q295 492 281 446T255 356ZM-3 0L215 652H586V528H441V399H559V275H441V124H595V0H311V149H193L148 0H-3Z" />
<glyph unicode="&#xc7;" glyph-name="Ccedilla" d="M356 -12Q295 -12 241 9T145 73T79 177T54 322Q54 403 78 466T144 574T243 641T365 664Q427 664 477 639T560 581L479 490Q456 511 429 524T365 537Q330 537 301 523T251 481T217 415T205 327Q205 226 251 171T371
115Q406 115 435 131T489 173L570 84Q489 -12 356 -12ZM241 -239L230 -180Q289 -177 311 -167T333 -136Q333 -121 318 -111T256 -94L306 11H392L362 -61Q400 -70 419 -87T438 -136Q438 -187 387 -211T241 -239Z" />
<glyph unicode="&#xc8;" glyph-name="Egrave" d="M92 0V652H524V528H240V397H481V274H240V124H534V0H92ZM360 680L176 799L254 894L425 754L360 680Z" />
<glyph unicode="&#xc9;" glyph-name="Eacute" d="M92 0V652H524V528H240V397H481V274H240V124H534V0H92ZM286 680L221 754L392 894L470 799L286 680Z" />
<glyph unicode="&#xca;" glyph-name="Ecircumflex" d="M92 0V652H524V528H240V397H481V274H240V124H534V0H92ZM217 685L153 724L243 835H403L493 724L429 685L325 769H321L217 685Z" />
<glyph unicode="&#xcb;" glyph-name="Edieresis" d="M92 0V652H524V528H240V397H481V274H240V124H534V0H92ZM212 700Q180 700 160 721T139 773Q139 805 159 825T212 846Q244 846 265 826T286 773Q286 742 265 721T212 700ZM434 700Q402 700 381 721T360 773Q360
805 381 825T434 846Q466 846 486 826T507 773Q507 742 487 721T434 700Z" />
<glyph unicode="&#xcc;" glyph-name="Igrave" d="M74 0V124H226V528H74V652H526V528H374V124H526V0H74ZM337 680L153 799L231 894L402 754L337 680Z" />
<glyph unicode="&#xcd;" glyph-name="Iacute" d="M74 0V124H226V528H74V652H526V528H374V124H526V0H74ZM263 680L198 754L369 894L447 799L263 680Z" />
<glyph unicode="&#xce;" glyph-name="Icircumflex" d="M74 0V124H226V528H74V652H526V528H374V124H526V0H74ZM194 685L130 724L220 835H380L470 724L406 685L302 769H298L194 685Z" />
<glyph unicode="&#xcf;" glyph-name="Idieresis" d="M74 0V124H226V528H74V652H526V528H374V124H526V0H74ZM189 700Q157 700 137 721T116 773Q116 805 136 825T189 846Q221 846 242 826T263 773Q263 742 242 721T189 700ZM411 700Q379 700 358 721T337 773Q337
805 358 825T411 846Q443 846 463 826T484 773Q484 742 464 721T411 700Z" />
<glyph unicode="&#xd0;" glyph-name="Eth" d="M70 0V298H0V367L70 373V652H251Q321 652 379 633T478 575T541 474T564 329Q564 245 542 183T479 81T383 20T259 0H70ZM218 119H242Q280 119 311 130T365 165T400 230T413 329Q413 387 401 426T366 489T312 523T242
533H218V373H326V298H218V119Z" />
<glyph unicode="&#xd1;" glyph-name="Ntilde" d="M66 0V652H217L354 328L410 184H414Q409 236 401 299T393 421V652H534V0H383L246 325L190 467H186Q191 413 199 351T207 231V0H66ZM381 692Q354 692 334 701T298 721T269 741T244 750Q230 750 220 739T207 701L112
708Q116 784 151 818T239 852Q266 852 286 843T322 823T351 803T376 794Q390 794 400 805T413 843L508 836Q504 761 469 727T381 692Z" />
<glyph unicode="&#xd2;" glyph-name="Ograve" d="M300 -12Q242 -12 194 10T111 75T57 181T38 329Q38 411 57 473T110 578T193 642T300 664Q358 664 406 643T489 579T543 474T562 329Q562 245 543 182T490 75T407 10T300 -12ZM300 115Q351 115 381 169T411 329Q411
431 381 484T300 537Q249 537 219 484T189 329Q189 223 219 169T300 115ZM337 680L153 799L231 894L402 754L337 680Z" />
<glyph unicode="&#xd3;" glyph-name="Oacute" d="M300 -12Q242 -12 194 10T111 75T57 181T38 329Q38 411 57 473T110 578T193 642T300 664Q358 664 406 643T489 579T543 474T562 329Q562 245 543 182T490 75T407 10T300 -12ZM300 115Q351 115 381 169T411 329Q411
431 381 484T300 537Q249 537 219 484T189 329Q189 223 219 169T300 115ZM263 680L198 754L369 894L447 799L263 680Z" />
<glyph unicode="&#xd4;" glyph-name="Ocircumflex" d="M300 -12Q242 -12 194 10T111 75T57 181T38 329Q38 411 57 473T110 578T193 642T300 664Q358 664 406 643T489 579T543 474T562 329Q562 245 543 182T490 75T407 10T300 -12ZM300 115Q351 115 381 169T411
329Q411 431 381 484T300 537Q249 537 219 484T189 329Q189 223 219 169T300 115ZM194 685L130 724L220 835H380L470 724L406 685L302 769H298L194 685Z" />
<glyph unicode="&#xd5;" glyph-name="Otilde" d="M300 -12Q242 -12 194 10T111 75T57 181T38 329Q38 411 57 473T110 578T193 642T300 664Q358 664 406 643T489 579T543 474T562 329Q562 245 543 182T490 75T407 10T300 -12ZM300 115Q351 115 381 169T411 329Q411
431 381 484T300 537Q249 537 219 484T189 329Q189 223 219 169T300 115ZM371 692Q344 692 324 701T288 721T259 741T234 750Q220 750 210 739T197 701L102 708Q106 784 141 818T229 852Q256 852 276 843T312 823T341 803T366 794Q380 794 390 805T403 843L498
836Q494 761 459 727T371 692Z" />
<glyph unicode="&#xd6;" glyph-name="Odieresis" d="M300 -12Q242 -12 194 10T111 75T57 181T38 329Q38 411 57 473T110 578T193 642T300 664Q358 664 406 643T489 579T543 474T562 329Q562 245 543 182T490 75T407 10T300 -12ZM300 115Q351 115 381 169T411 329Q411
431 381 484T300 537Q249 537 219 484T189 329Q189 223 219 169T300 115ZM189 700Q157 700 137 721T116 773Q116 805 136 825T189 846Q221 846 242 826T263 773Q263 742 242 721T189 700ZM411 700Q379 700 358 721T337 773Q337 805 358 825T411 846Q443 846 463
826T484 773Q484 742 464 721T411 700Z" />
<glyph unicode="&#xd7;" glyph-name="multiply" d="M157 112L84 186L226 329L84 473L157 547L300 403L443 547L516 473L374 329L516 186L443 112L300 256L157 112Z" />
<glyph unicode="&#xd8;" glyph-name="Oslash" d="M300 -12Q216 -12 153 34L99 -42L19 10L88 108Q64 150 51 205T38 329Q38 411 57 473T110 578T193 642T300 664Q385 664 447 619L500 694L580 642L512 545Q536 504 549 450T562 329Q562 245 543 182T490 75T407
10T300 -12ZM189 329Q189 309 190 292T193 258L367 505Q340 537 300 537Q249 537 219 484T189 329ZM300 115Q351 115 381 169T411 329Q411 347 410 364T407 396L233 148Q260 115 300 115Z" />
<glyph unicode="&#xd9;" glyph-name="Ugrave" d="M302 -12Q182 -12 123 55T64 251V652H211V236Q211 177 233 146T302 115Q349 115 371 146T394 236V652H536V251Q536 123 479 56T302 -12ZM337 680L153 799L231 894L402 754L337 680Z" />
<glyph unicode="&#xda;" glyph-name="Uacute" d="M302 -12Q182 -12 123 55T64 251V652H211V236Q211 177 233 146T302 115Q349 115 371 146T394 236V652H536V251Q536 123 479 56T302 -12ZM263 680L198 754L369 894L447 799L263 680Z" />
<glyph unicode="&#xdb;" glyph-name="Ucircumflex" d="M302 -12Q182 -12 123 55T64 251V652H211V236Q211 177 233 146T302 115Q349 115 371 146T394 236V652H536V251Q536 123 479 56T302 -12ZM194 685L130 724L220 835H380L470 724L406 685L302 769H298L194 685Z" />
<glyph unicode="&#xdc;" glyph-name="Udieresis" d="M302 -12Q182 -12 123 55T64 251V652H211V236Q211 177 233 146T302 115Q349 115 371 146T394 236V652H536V251Q536 123 479 56T302 -12ZM189 700Q157 700 137 721T116 773Q116 805 136 825T189 846Q221 846
242 826T263 773Q263 742 242 721T189 700ZM411 700Q379 700 358 721T337 773Q337 805 358 825T411 846Q443 846 463 826T484 773Q484 742 464 721T411 700Z" />
<glyph unicode="&#xdd;" glyph-name="Yacute" d="M226 0V220L16 652H174L240 495Q254 457 269 421T299 346H303Q319 385 334 421T364 495L430 652H584L374 220V0H226ZM263 680L198 754L369 894L447 799L263 680Z" />
<glyph unicode="&#xde;" glyph-name="Thorn" d="M73 0V652H220V553H311Q364 553 410 543T491 508T546 443T566 344Q566 286 546 245T490 176T409 136T311 123H220V0H73ZM220 240H302Q421 240 421 344Q421 395 391 415T302 436H220V240Z" />
<glyph unicode="&#xdf;" glyph-name="germandbls" d="M397 -12Q355 -12 324 -3T258 25L307 125Q330 110 351 104T392 97Q412 97 423 108T435 140Q435 159 424 173T395 199T358 224T320 254T292 294T280 350Q280 380 289 402T310 444T330 485T340 536Q340 562 326
579T287 597Q246 597 227 567T208 486V0H61V495Q61 541 75 581T117 650T188 696T288 713Q336 713 372 699T431 661T465 607T477 544Q477 508 468 484T447 440T426 404T416 368Q416 351 427 339T456 315T493 290T531 258T559 214T571 152Q571 118 560 88T527 36T473
1T397 -12Z" />
<glyph unicode="&#xe0;" glyph-name="agrave" d="M224 -12Q186 -12 156 -1T105 31T73 79T61 138Q61 180 79 211T136 265T238 300T388 319Q384 353 359 372T282 391Q246 391 210 379T131 345L79 441Q130 470 188 489T311 508Q415 508 475 453T535 284V0H415L404
56H400Q362 27 317 8T224 -12ZM271 102Q304 102 333 115T388 149V231Q333 228 297 221T240 204T211 179T202 149Q202 125 220 114T271 102ZM326 561L145 717L245 815L398 633L326 561Z" />
<glyph unicode="&#xe1;" glyph-name="aacute" d="M224 -12Q186 -12 156 -1T105 31T73 79T61 138Q61 180 79 211T136 265T238 300T388 319Q384 353 359 372T282 391Q246 391 210 379T131 345L79 441Q130 470 188 489T311 508Q415 508 475 453T535 284V0H415L404
56H400Q362 27 317 8T224 -12ZM271 102Q304 102 333 115T388 149V231Q333 228 297 221T240 204T211 179T202 149Q202 125 220 114T271 102ZM314 561L242 633L395 815L495 717L314 561Z" />
<glyph unicode="&#xe2;" glyph-name="acircumflex" d="M224 -12Q186 -12 156 -1T105 31T73 79T61 138Q61 180 79 211T136 265T238 300T388 319Q384 353 359 372T282 391Q246 391 210 379T131 345L79 441Q130 470 188 489T311 508Q415 508 475 453T535 284V0H415L404
56H400Q362 27 317 8T224 -12ZM271 102Q304 102 333 115T388 149V231Q333 228 297 221T240 204T211 179T202 149Q202 125 220 114T271 102ZM193 561L137 613L245 744H395L503 613L447 561L322 653H318L193 561Z" />
<glyph unicode="&#xe3;" glyph-name="atilde" d="M224 -12Q186 -12 156 -1T105 31T73 79T61 138Q61 180 79 211T136 265T238 300T388 319Q384 353 359 372T282 391Q246 391 210 379T131 345L79 441Q130 470 188 489T311 508Q415 508 475 453T535 284V0H415L404
56H400Q362 27 317 8T224 -12ZM271 102Q304 102 333 115T388 149V231Q333 228 297 221T240 204T211 179T202 149Q202 125 220 114T271 102ZM386 573Q362 573 344 583T310 605T282 627T257 637Q242 637 234 624T222 582L130 587Q132 665 164 702T254 739Q278 739
296 729T330 707T358 685T383 675Q412 675 418 730L510 725Q508 647 476 610T386 573Z" />
<glyph unicode="&#xe4;" glyph-name="adieresis" d="M224 -12Q186 -12 156 -1T105 31T73 79T61 138Q61 180 79 211T136 265T238 300T388 319Q384 353 359 372T282 391Q246 391 210 379T131 345L79 441Q130 470 188 489T311 508Q415 508 475 453T535 284V0H415L404
56H400Q362 27 317 8T224 -12ZM271 102Q304 102 333 115T388 149V231Q333 228 297 221T240 204T211 179T202 149Q202 125 220 114T271 102ZM209 571Q174 571 152 594T129 651Q129 686 151 709T209 732Q244 732 266 709T289 651Q289 617 267 594T209 571ZM431 571Q396
571 374 594T351 651Q351 686 373 709T431 732Q466 732 488 709T511 651Q511 617 489 594T431 571Z" />
<glyph unicode="&#xe5;" glyph-name="aring" d="M224 -12Q186 -12 156 -1T105 31T73 79T61 138Q61 180 79 211T136 265T238 300T388 319Q384 353 359 372T282 391Q246 391 210 379T131 345L79 441Q130 470 188 489T311 508Q415 508 475 453T535 284V0H415L404
56H400Q362 27 317 8T224 -12ZM271 102Q304 102 333 115T388 149V231Q333 228 297 221T240 204T211 179T202 149Q202 125 220 114T271 102ZM320 568Q254 568 221 598T188 672Q188 714 221 744T320 775Q386 775 419 745T452 672Q452 629 419 599T320 568ZM320 623Q338
623 350 636T363 672Q363 693 351 706T320 720Q302 720 290 707T277 672Q277 650 289 637T320 623Z" />
<glyph unicode="&#xe6;" glyph-name="ae" d="M149 -12Q89 -12 53 27T16 130Q16 208 71 252T242 314Q238 360 221 375T181 391Q154 391 131 382T81 357L29 453Q71 478 110 493T191 508Q229 508 258 492T310 435Q336 476 368 492T436 508Q475 508 504 489T553 438T583
362T593 269Q593 249 591 232T587 204H355Q363 153 389 128T451 103Q488 103 527 130L578 35Q549 12 513 0T445 -12Q395 -12 357 8T293 62Q255 21 221 5T149 -12ZM194 102Q207 102 222 108T256 134Q243 173 243 222V227Q187 218 167 196T147 148Q147 125 160 114T194
102ZM424 396Q402 396 382 374T355 297H478Q476 350 463 373T424 396Z" />
<glyph unicode="&#xe7;" glyph-name="ccedilla" d="M343 -12Q284 -12 234 5T147 56T88 137T67 248Q67 310 90 358T153 440T245 490T354 508Q413 508 460 489T540 441L472 350Q417 389 362 389Q298 389 258 351T218 248Q218 183 256 145T357 107Q396 107 428 121T488
154L547 61Q502 23 448 6T343 -12ZM240 -239L229 -180Q288 -177 310 -167T332 -136Q332 -121 317 -111T255 -94L305 11H391L361 -61Q399 -70 418 -87T437 -136Q437 -187 386 -211T240 -239Z" />
<glyph unicode="&#xe8;" glyph-name="egrave" d="M330 -12Q272 -12 222 5T134 56T76 137T55 248Q55 309 76 357T134 439T216 490T313 508Q370 508 414 490T487 440T532 365T547 270Q547 250 545 232T540 204H202Q213 150 251 125T350 100Q384 100 414 109T478
135L527 46Q484 19 432 4T330 -12ZM318 396Q274 396 245 373T204 303H416Q405 396 318 396ZM318 561L137 717L237 815L390 633L318 561Z" />
<glyph unicode="&#xe9;" glyph-name="eacute" d="M330 -12Q272 -12 222 5T134 56T76 137T55 248Q55 309 76 357T134 439T216 490T313 508Q370 508 414 490T487 440T532 365T547 270Q547 250 545 232T540 204H202Q213 150 251 125T350 100Q384 100 414 109T478
135L527 46Q484 19 432 4T330 -12ZM318 396Q274 396 245 373T204 303H416Q405 396 318 396ZM306 561L234 633L387 815L487 717L306 561Z" />
<glyph unicode="&#xea;" glyph-name="ecircumflex" d="M330 -12Q272 -12 222 5T134 56T76 137T55 248Q55 309 76 357T134 439T216 490T313 508Q370 508 414 490T487 440T532 365T547 270Q547 250 545 232T540 204H202Q213 150 251 125T350 100Q384 100 414 109T478
135L527 46Q484 19 432 4T330 -12ZM318 396Q274 396 245 373T204 303H416Q405 396 318 396ZM185 561L129 613L237 744H387L495 613L439 561L314 653H310L185 561Z" />
<glyph unicode="&#xeb;" glyph-name="edieresis" d="M330 -12Q272 -12 222 5T134 56T76 137T55 248Q55 309 76 357T134 439T216 490T313 508Q370 508 414 490T487 440T532 365T547 270Q547 250 545 232T540 204H202Q213 150 251 125T350 100Q384 100 414 109T478
135L527 46Q484 19 432 4T330 -12ZM318 396Q274 396 245 373T204 303H416Q405 396 318 396ZM201 571Q166 571 144 594T121 651Q121 686 143 709T201 732Q236 732 258 709T281 651Q281 617 259 594T201 571ZM423 571Q388 571 366 594T343 651Q343 686 365 709T423
732Q458 732 480 709T503 651Q503 617 481 594T423 571Z" />
<glyph unicode="&#xec;" glyph-name="igrave" d="M278 0V381H79V496H425V0H278ZM351 561L170 717L270 815L423 633L351 561Z" />
<glyph unicode="&#xed;" glyph-name="iacute" d="M278 0V381H79V496H425V0H278ZM339 561L267 633L420 815L520 717L339 561Z" />
<glyph unicode="&#xee;" glyph-name="icircumflex" d="M278 0V381H79V496H425V0H278ZM218 561L162 613L270 744H420L528 613L472 561L347 653H343L218 561Z" />
<glyph unicode="&#xef;" glyph-name="idieresis" d="M278 0V381H79V496H425V0H278ZM234 571Q199 571 177 594T154 651Q154 686 176 709T234 732Q269 732 291 709T314 651Q314 617 292 594T234 571ZM456 571Q421 571 399 594T376 651Q376 686 398 709T456 732Q491
732 513 709T536 651Q536 617 514 594T456 571Z" />
<glyph unicode="&#xf0;" glyph-name="eth" d="M295 -12Q244 -12 199 5T121 53T67 128T47 228Q47 282 65 324T114 395T184 439T268 455Q304 455 337 442T394 399Q380 444 357 480T298 548L148 473L108 541L227 601Q185 628 135 651L199 740Q237 723 273 703T343
659L480 728L520 660L409 604Q473 544 511 462T550 266Q550 206 533 155T483 67T403 9T295 -12ZM300 107Q351 107 382 145T413 258Q413 267 413 275T412 292Q386 321 358 333T298 346Q244 346 213 317T181 228Q181 198 190 176T216 138T254 115T300 107Z" />
<glyph unicode="&#xf1;" glyph-name="ntilde" d="M72 0V496H192L203 430H207Q239 462 280 485T378 508Q462 508 501 454T540 306V0H393V287Q393 337 377 360T320 383Q290 383 268 370T219 331V0H72ZM381 573Q357 573 339 583T305 605T277 627T252 637Q237 637
229 624T217 582L125 587Q127 665 159 702T249 739Q273 739 291 729T325 707T353 685T378 675Q407 675 413 730L505 725Q503 647 471 610T381 573Z" />
<glyph unicode="&#xf2;" glyph-name="ograve" d="M300 -12Q251 -12 206 5T125 56T68 137T47 248Q47 310 68 358T124 440T205 490T300 508Q349 508 394 491T475 440T532 359T553 248Q553 186 532 138T476 56T395 6T300 -12ZM300 107Q351 107 376 145T402 248Q402
313 377 351T300 389Q249 389 224 351T198 248Q198 183 223 145T300 107ZM306 561L125 717L225 815L378 633L306 561Z" />
<glyph unicode="&#xf3;" glyph-name="oacute" d="M300 -12Q251 -12 206 5T125 56T68 137T47 248Q47 310 68 358T124 440T205 490T300 508Q349 508 394 491T475 440T532 359T553 248Q553 186 532 138T476 56T395 6T300 -12ZM300 107Q351 107 376 145T402 248Q402
313 377 351T300 389Q249 389 224 351T198 248Q198 183 223 145T300 107ZM294 561L222 633L375 815L475 717L294 561Z" />
<glyph unicode="&#xf4;" glyph-name="ocircumflex" d="M300 -12Q251 -12 206 5T125 56T68 137T47 248Q47 310 68 358T124 440T205 490T300 508Q349 508 394 491T475 440T532 359T553 248Q553 186 532 138T476 56T395 6T300 -12ZM300 107Q351 107 376 145T402 248Q402
313 377 351T300 389Q249 389 224 351T198 248Q198 183 223 145T300 107ZM173 561L117 613L225 744H375L483 613L427 561L302 653H298L173 561Z" />
<glyph unicode="&#xf5;" glyph-name="otilde" d="M300 -12Q251 -12 206 5T125 56T68 137T47 248Q47 310 68 358T124 440T205 490T300 508Q349 508 394 491T475 440T532 359T553 248Q553 186 532 138T476 56T395 6T300 -12ZM300 107Q351 107 376 145T402 248Q402
313 377 351T300 389Q249 389 224 351T198 248Q198 183 223 145T300 107ZM366 573Q342 573 324 583T290 605T262 627T237 637Q222 637 214 624T202 582L110 587Q112 665 144 702T234 739Q258 739 276 729T310 707T338 685T363 675Q392 675 398 730L490 725Q488
647 456 610T366 573Z" />
<glyph unicode="&#xf6;" glyph-name="odieresis" d="M300 -12Q251 -12 206 5T125 56T68 137T47 248Q47 310 68 358T124 440T205 490T300 508Q349 508 394 491T475 440T532 359T553 248Q553 186 532 138T476 56T395 6T300 -12ZM300 107Q351 107 376 145T402 248Q402
313 377 351T300 389Q249 389 224 351T198 248Q198 183 223 145T300 107ZM189 571Q154 571 132 594T109 651Q109 686 131 709T189 732Q224 732 246 709T269 651Q269 617 247 594T189 571ZM411 571Q376 571 354 594T331 651Q331 686 353 709T411 732Q446 732 468
709T491 651Q491 617 469 594T411 571Z" />
<glyph unicode="&#xf7;" glyph-name="divide" d="M300 433Q265 433 242 454T219 510Q219 544 242 565T300 587Q335 587 358 566T381 510Q381 476 358 455T300 433ZM300 73Q265 73 242 94T219 150Q219 184 242 205T300 227Q335 227 358 206T381 150Q381 116 358
95T300 73ZM70 278V382H530V278H70Z" />
<glyph unicode="&#xf8;" glyph-name="oslash" d="M300 -12Q263 -12 228 -3T163 27L118 -27L61 19L107 74Q79 107 63 150T47 248Q47 310 68 358T124 440T205 490T300 508Q375 508 436 470L482 525L539 478L492 422Q521 390 537 346T553 248Q553 186 532 138T476
56T395 6T300 -12ZM198 248Q198 216 204 191L357 375Q333 394 300 394Q249 394 224 354T198 248ZM300 102Q351 102 376 142T402 248Q402 280 396 306L242 122Q265 102 300 102Z" />
<glyph unicode="&#xf9;" glyph-name="ugrave" d="M223 -12Q138 -12 100 42T62 190V496H209V209Q209 159 224 136T281 113Q309 113 330 125T378 170V496H525V0H405L394 71H390Q357 33 317 11T223 -12ZM559 561L378 717L478 815L631 633L559 561Z" />
<glyph unicode="&#xfa;" glyph-name="uacute" d="M223 -12Q138 -12 100 42T62 190V496H209V209Q209 159 224 136T281 113Q309 113 330 125T378 170V496H525V0H405L394 71H390Q357 33 317 11T223 -12ZM547 561L475 633L628 815L728 717L547 561Z" />
<glyph unicode="&#xfb;" glyph-name="ucircumflex" d="M223 -12Q138 -12 100 42T62 190V496H209V209Q209 159 224 136T281 113Q309 113 330 125T378 170V496H525V0H405L394 71H390Q357 33 317 11T223 -12ZM426 561L370 613L478 744H628L736 613L680 561L555 653H551L426
561Z" />
<glyph unicode="&#xfc;" glyph-name="udieresis" d="M223 -12Q138 -12 100 42T62 190V496H209V209Q209 159 224 136T281 113Q309 113 330 125T378 170V496H525V0H405L394 71H390Q357 33 317 11T223 -12ZM442 571Q407 571 385 594T362 651Q362 686 384 709T442
732Q477 732 499 709T522 651Q522 617 500 594T442 571ZM664 571Q629 571 607 594T584 651Q584 686 606 709T664 732Q699 732 721 709T744 651Q744 617 722 594T664 571Z" />
<glyph unicode="&#xfd;" glyph-name="yacute" d="M143 -194Q121 -194 102 -192T67 -184L93 -72Q112 -78 132 -78Q175 -78 199 -60T236 -13L246 13L31 496H177L260 283Q274 248 286 211T310 134H314Q324 171 336 208T359 283L432 496H571L375 -5Q357 -52 336 -87T288
-146T226 -182T143 -194ZM302 561L230 633L383 815L483 717L302 561Z" />
<glyph unicode="&#xfe;" glyph-name="thorn" d="M72 -184V701H219V528L214 451H217Q246 478 281 493T354 508Q400 508 437 490T499 439T539 360T553 256Q553 192 535 143T486 59T418 6T339 -12Q302 -12 271 3T217 42H214L219 -39V-184H72ZM304 108Q324 108 341
116T372 143T394 188T402 254Q402 321 380 354T310 388Q264 388 219 342V141Q239 123 262 116T304 108Z" />
<glyph unicode="&#xff;" glyph-name="ydieresis" d="M143 -194Q121 -194 102 -192T67 -184L93 -72Q112 -78 132 -78Q175 -78 199 -60T236 -13L246 13L31 496H177L260 283Q274 248 286 211T310 134H314Q324 171 336 208T359 283L432 496H571L375 -5Q357 -52 336
-87T288 -146T226 -182T143 -194ZM197 571Q162 571 140 594T117 651Q117 686 139 709T197 732Q232 732 254 709T277 651Q277 617 255 594T197 571ZM419 571Q384 571 362 594T339 651Q339 686 361 709T419 732Q454 732 476 709T499 651Q499 617 477 594T419 571Z"
/>
<glyph unicode="&#x2013;" glyph-name="endash" d="M80 199V310H520V199H80Z" />
<glyph unicode="&#x2014;" glyph-name="emdash" d="M0 199V310H600V199H0Z" />
<glyph unicode="&#x2018;" glyph-name="quoteleft" d="M301 290Q245 290 215 332T184 450Q184 532 227 594T359 697L397 619Q345 595 317 561T285 479Q295 482 306 482Q346 482 371 458T397 391Q397 345 370 318T301 290Z" />
<glyph unicode="&#x2019;" glyph-name="quoteright" d="M241 290L202 368Q307 415 313 507Q304 504 294 504Q253 504 228 529T202 596Q202 642 229 669T298 697Q355 697 385 655T415 537Q415 455 372 393T241 290Z" />
<glyph unicode="&#x201a;" glyph-name="quotesinglbase" d="M241 -230L202 -152Q307 -105 313 -13Q304 -16 294 -16Q253 -16 228 9T202 76Q202 122 229 149T298 177Q355 177 385 135T415 17Q415 -65 372 -127T241 -230Z" />
<glyph unicode="&#x201c;" glyph-name="quotedblleft" d="M169 290Q113 290 83 332T52 450Q52 532 95 594T227 697L265 619Q213 595 185 561T153 479Q163 482 174 482Q214 482 239 458T265 391Q265 345 238 318T169 290ZM434 290Q378 290 348 332T317 450Q317
532 360 594T492 697L530 619Q478 595 450 561T418 479Q428 482 439 482Q479 482 504 458T530 391Q530 345 503 318T434 290Z" />
<glyph unicode="&#x201d;" glyph-name="quotedblright" d="M109 290L70 368Q175 415 181 507Q172 504 162 504Q121 504 96 529T70 596Q70 642 97 669T166 697Q223 697 253 655T283 537Q283 455 240 393T109 290ZM374 290L335 368Q440 415 446 507Q437 504 427
504Q386 504 361 529T335 596Q335 642 362 669T431 697Q488 697 518 655T548 537Q548 455 505 393T374 290Z" />
<glyph unicode="&#x201e;" glyph-name="quotedblbase" d="M109 -230L70 -152Q175 -105 181 -13Q172 -16 162 -16Q121 -16 96 9T70 76Q70 122 97 149T166 177Q223 177 253 135T283 17Q283 -65 240 -127T109 -230ZM374 -230L335 -152Q440 -105 446 -13Q437 -16 427
-16Q386 -16 361 9T335 76Q335 122 362 149T431 177Q488 177 518 135T548 17Q548 -65 505 -127T374 -230Z" />
<glyph unicode="&#x2022;" glyph-name="bullet" d="M300 101Q265 101 235 113T183 147T149 198T136 262Q136 296 148 325T183 377T235 411T300 423Q335 423 365 411T417 377T451 326T464 262Q464 227 452 198T417 147T365 113T300 101Z" />
<glyph unicode="&#x2039;" glyph-name="guilsinglleft" d="M346 25L175 179V325L346 479L408 424L281 252L408 80L346 25Z" />
<glyph unicode="&#x203a;" glyph-name="guilsinglright" d="M254 25L192 80L319 252L192 424L254 479L425 325V179L254 25Z" />
</font>
</defs>
</svg>
