<?xml version="1.0" standalone="no"?>
<!DOCTYPE svg PUBLIC "-//W3C//DTD SVG 1.1//EN" "http://www.w3.org/Graphics/SVG/1.1/DTD/svg11.dtd">
<svg xmlns="http://www.w3.org/2000/svg">
<defs >
<font id="SourceCodePro" horiz-adv-x="600" ><font-face
    font-family="Source Code Pro"
    units-per-em="1000"
    panose-1="2 11 7 9 3 4 3 9 2 4"
    ascent="984"
    descent="-273"
    alphabetic="0" />
<glyph unicode=" " glyph-name="space" />
<glyph unicode="!" glyph-name="exclam" d="M245 255L281 537L303 670H444L417 537L335 255H245ZM246 -12Q211 -12 190 11T168 70Q168 93 176 113T198 148T232 172T276 181Q311 181 332 158T354 99Q354 76 346 56T324 21T290 -3T246 -12Z" />
<glyph unicode="&quot;" glyph-name="quotedbl" d="M134 312L148 547L172 685H330L298 547L217 312H134ZM399 312L413 547L437 685H595L563 547L482 312H399Z" />
<glyph unicode="#" glyph-name="numbersign" d="M256 0L314 189H200L141 0H61L121 189H47L68 269H146L188 402H104L125 482H213L266 650H344L292 482H404L455 650H534L483 482H564L542 402H458L418 269H506L485 189H394L336 0H256ZM338 269L379 402H267L225 269H338Z" />
<glyph unicode="$" glyph-name="dollar" d="M173 -110L204 41Q149 53 110 81T44 140L126 223Q155 189 190 166T278 143Q320 143 343 157T366 197Q366 220 340 237T266 276Q236 290 210 305T163 341T132 386T120 446Q120 527 172 569T310 617L334 746H424L399 610Q447
597 482 572T536 520L456 445Q427 477 395 493T323 509Q291 509 271 497T251 460Q251 434 277 417T349 378Q380 364 407 349T454 314T487 270T499 212Q499 169 483 137T439 83T373 49T292 35L264 -110H173Z" />
<glyph unicode="%" glyph-name="percent" d="M117 312Q63 312 27 346T-9 446Q-9 489 5 526T44 590T101 632T171 648Q225 648 261 613T297 514Q297 470 283 433T244 369T187 327T117 312ZM128 386Q157 386 179 420T202 511Q202 544 191 559T160 574Q131 574 109
540T86 448Q86 415 97 401T128 386ZM5 22L-51 90L170 266L209 222L5 22ZM382 373L344 417L546 617L602 549L382 373ZM370 -12Q316 -12 280 22T244 122Q244 165 258 202T297 266T354 308T424 324Q478 324 514 289T550 190Q550 146 536 109T497 45T440 3T370 -12ZM381
62Q410 62 432 96T455 187Q455 220 444 235T413 250Q384 250 362 216T339 124Q339 91 350 77T381 62Z" />
<glyph unicode="&amp;" glyph-name="ampersand" d="M186 -12Q101 -12 53 32T5 150Q5 187 16 216T47 270T93 314T147 351Q125 415 125 469Q125 509 139 544T178 606T240 648T320 664Q385 664 419 629T454 533Q454 493 440 462T402 405T349 359T288 319Q308 287
333 256T386 199Q414 234 434 273T473 358H593Q566 295 535 241T465 138Q491 121 517 111T564 96L510 -12Q442 4 375 49Q333 20 286 4T186 -12ZM238 473Q238 442 247 409Q289 435 318 464T347 534Q347 552 338 562T312 573Q281 573 260 547T238 473ZM210 92Q250
92 295 117Q234 179 191 255Q167 236 152 214T137 164Q137 132 156 112T210 92Z" />
<glyph unicode="&apos;" glyph-name="quotesingle" d="M266 312L280 547L304 685H462L430 547L349 312H266Z" />
<glyph unicode="(" glyph-name="parenleft" d="M309 -178Q246 -112 211 -19T175 186Q175 277 196 357T258 506T356 634T487 740L553 664Q412 562 351 443T290 186Q290 98 317 22T399 -117L309 -178Z" />
<glyph unicode=")" glyph-name="parenright" d="M103 -188L37 -111Q178 -9 238 110T299 366Q299 455 272 531T190 670L278 731Q341 665 377 572T413 366Q413 276 392 196T331 46T234 -82T103 -188Z" />
<glyph unicode="*" glyph-name="asterisk" d="M142 98L90 142L212 295L80 369L114 430L263 385L311 553H383L364 383L524 429L544 362L378 288L448 129L382 90L288 235L142 98Z" />
<glyph unicode="+" glyph-name="plus" d="M250 96V282H73V378H250V564H350V378H527V282H350V96H250Z" />
<glyph unicode="," glyph-name="comma" d="M104 -205L90 -136Q156 -116 198 -81T253 6Q249 5 240 5Q208 5 185 28T161 90Q161 114 170 135T196 171T234 195T280 204Q322 204 347 174T373 87Q373 32 353 -15T298 -101T213 -165T104 -205Z" />
<glyph unicode="-" glyph-name="hyphen" d="M73 282V378H527V282H73Z" />
<glyph unicode="." glyph-name="period" d="M241 -12Q200 -12 176 15T152 83Q152 109 161 132T186 173T226 201T276 211Q317 211 341 184T366 115Q366 89 357 66T331 26T291 -2T241 -12Z" />
<glyph unicode="/" glyph-name="slash" d="M-10 -160L493 710H614L111 -160H-10Z" />
<glyph unicode="0" glyph-name="zero" d="M255 -12Q207 -12 168 5T100 56T57 135T41 240Q41 320 62 393T122 523T219 613T348 647Q397 647 436 630T504 579T547 500T563 395Q563 315 542 242T482 112T385 22T255 -12ZM267 93Q306 93 337 118T390 184T424 277T436
386Q436 461 412 501T336 542Q297 542 266 517T213 451T180 357T168 249Q168 174 192 134T267 93ZM293 250Q267 250 253 266T239 312Q239 348 260 375T313 402Q339 402 353 386T367 340Q367 304 346 277T293 250Z" />
<glyph unicode="1" glyph-name="one" d="M21 0L44 110H216L293 493H153L170 579Q233 587 276 600T357 635H458L353 110H501L479 0H21Z" />
<glyph unicode="2" glyph-name="two" d="M17 0L33 78Q110 141 173 193T282 292T352 379T377 462Q377 497 357 518T299 539Q269 539 238 521T172 467L106 547Q151 592 202 619T317 647Q407 647 458 601T510 476Q510 428 490 385T434 298T349 209T243 111Q274 114
306 114T366 115H509L487 0H17Z" />
<glyph unicode="3" glyph-name="three" d="M243 -12Q180 -12 120 15T17 102L103 172Q129 138 166 118T244 98Q295 98 326 121T357 186Q357 207 350 223T323 251T272 269T190 276L209 373Q261 373 295 380T351 401T380 432T389 472Q389 503 367 521T306 539Q278
539 251 528T193 496L132 580Q180 615 228 631T331 647Q375 647 411 637T474 606T514 558T529 495Q529 433 496 392T382 324V320Q440 300 467 265T494 185Q494 137 475 100T422 38T343 1T243 -12Z" />
<glyph unicode="4" glyph-name="four" d="M292 0L322 155H7L26 250L378 635H542L468 260H548L527 155H447L416 0H292ZM168 260H343L367 384Q374 419 382 456T397 522H394Q373 495 352 467T308 413L168 260Z" />
<glyph unicode="5" glyph-name="five" d="M234 -12Q168 -12 109 14T6 102L93 173Q119 137 155 118T236 98Q261 98 285 106T327 129T356 166T367 217Q367 262 341 284T266 306Q249 306 236 305T209 300T180 290T145 274L93 317L171 635H544L522 520H267L233 392Q275
408 322 408Q361 408 394 398T452 366T491 314T506 240Q506 181 483 134T422 55T335 5T234 -12Z" />
<glyph unicode="6" glyph-name="six" d="M275 -12Q225 -12 185 4T115 51T70 123T54 218Q54 318 80 397T151 532T259 617T394 647Q427 647 455 639T505 619T545 590T574 558L487 486Q452 537 386 537Q354 537 325 525T270 488T224 425T193 334Q208 349 227 361T266
382T307 394T345 399Q381 399 413 390T469 360T507 308T521 232Q521 185 503 141T452 63T374 9T275 -12ZM282 90Q310 90 331 102T367 133T389 175T396 220Q396 262 373 283T309 305Q278 305 246 291T182 237Q181 229 181 222T181 206Q181 149 209 120T282 90Z"
/>
<glyph unicode="7" glyph-name="seven" d="M128 0Q147 86 172 158T230 293T305 411T404 520H100L122 635H588L571 549Q521 504 483 464T417 383T368 301T330 213T299 115T270 0H128Z" />
<glyph unicode="8" glyph-name="eight" d="M254 -12Q154 -12 99 29T43 142Q43 207 78 251T190 328V332Q161 361 143 393T124 466Q124 508 140 541T187 598T257 634T346 647Q385 647 419 638T480 611T521 566T536 503Q536 443 504 401T416 332V328Q432 317 447
304T474 273T493 233T500 184Q500 140 483 104T433 42T356 2T254 -12ZM348 366Q383 388 401 417T419 479Q419 513 397 531T336 550Q298 550 271 530T244 474Q244 439 274 413T348 366ZM264 85Q285 85 305 90T340 105T365 131T374 168Q374 187 365 202T340 230T300
257T248 286Q210 263 188 234T165 169Q165 127 194 106T264 85Z" />
<glyph unicode="9" glyph-name="nine" d="M292 330Q322 330 354 344T418 398Q419 406 419 413T419 429Q419 487 391 516T318 545Q289 545 268 533T233 502T212 460T205 415Q205 373 228 352T292 330ZM206 -12Q173 -12 145 -4T95 16T55 45T27 77L113 149Q132 123
156 111T215 98Q246 98 275 110T330 147T376 210T407 301Q392 286 373 274T334 253T293 241T255 236Q219 236 187 245T131 275T93 327T79 403Q79 450 97 494T148 572T226 626T325 647Q375 647 416 631T486 584T530 512T546 417Q546 317 520 238T449 103T341 18T206
-12Z" />
<glyph unicode=":" glyph-name="colon" d="M304 311Q263 311 239 338T215 406Q215 432 224 455T249 496T289 524T339 534Q380 534 404 507T429 438Q429 412 420 389T394 349T354 321T304 311ZM241 -12Q200 -12 176 15T152 83Q152 109 161 132T186 173T226 201T276
211Q317 211 341 184T366 115Q366 89 357 66T331 26T291 -2T241 -12Z" />
<glyph unicode=";" glyph-name="semicolon" d="M304 311Q263 311 239 338T215 406Q215 432 224 455T249 496T289 524T339 534Q380 534 404 507T429 438Q429 412 420 389T394 349T354 321T304 311ZM104 -205L90 -136Q156 -116 198 -81T253 6Q249 5 240 5Q208 5
185 28T161 90Q161 114 170 135T196 171T234 195T280 204Q322 204 347 174T373 87Q373 32 353 -15T298 -101T213 -165T104 -205Z" />
<glyph unicode="&lt;" glyph-name="less" d="M501 33L117 284V380L501 631V505L230 334V330L501 159V33Z" />
<glyph unicode="=" glyph-name="equal" d="M73 397V493H527V397H73ZM73 424V520H527V424H73Z" />
<glyph unicode="&gt;" glyph-name="greater" d="M99 33V159L370 330V334L99 505V631L483 380V284L99 33Z" />
<glyph unicode="?" glyph-name="question" d="M213 255Q214 290 225 317T253 367T290 405T330 436Q364 459 382 478T400 523Q400 547 386 559T345 572Q313 572 288 558T235 515L164 582Q203 630 252 656T370 682Q405 682 435 674T488 650T524 610T537 552Q537
517 527 492T499 445T458 407T408 370Q391 358 377 347T353 322T336 293T326 255H213ZM231 -12Q196 -12 175 11T153 70Q153 93 161 113T183 148T217 172T261 181Q295 181 317 158T339 99Q339 76 331 56T309 21T275 -3T231 -12Z" />
<glyph unicode="@" glyph-name="at" d="M280 -147Q225 -147 177 -128T92 -72T34 22T13 153Q13 270 44 361T127 515T247 610T389 643Q487 643 533 593T579 458Q579 442 577 426T571 392L513 100H440L441 151H437Q411 122 381 105T308 88Q286 88 266 95T231 116T208
150T199 195Q199 282 267 329T484 393Q489 410 490 422T492 446Q492 471 487 492T468 529T433 553T378 562Q331 562 284 536T199 459T136 334T112 164Q112 108 127 66T167 -5T225 -48T296 -63Q331 -63 358 -52T413 -21L453 -92Q381 -147 280 -147ZM349 173Q391
173 439 213L461 320Q415 313 385 304T336 281T309 253T301 218Q301 196 314 185T349 173Z" />
<glyph unicode="A" glyph-name="A" d="M266 354L227 267H366L362 353Q359 401 357 448T353 547H349Q328 499 308 451T266 354ZM-43 0L292 652H455L523 0H379L371 164H181L108 0H-43Z" />
<glyph unicode="B" glyph-name="B" d="M26 0L156 652H345Q394 652 435 643T504 616T549 570T565 503Q565 446 526 403T423 341L422 337Q476 323 505 293T534 214Q534 157 512 116T451 50T361 12T252 0H26ZM240 387H296Q364 387 394 412T424 480Q424 512 400 528T321
545H273L240 387ZM184 106H259Q329 106 365 132T402 209Q402 290 297 290H221L184 106Z" />
<glyph unicode="C" glyph-name="C" d="M317 -12Q260 -12 215 6T137 60T87 146T69 261Q69 345 96 418T169 546T279 632T416 664Q473 664 517 637T589 560L496 488Q478 517 457 531T409 545Q367 545 331 523T268 462T226 374T210 270Q210 194 241 150T346 106Q375
106 403 120T456 156L514 68Q499 54 479 40T434 15T380 -4T317 -12Z" />
<glyph unicode="D" glyph-name="D" d="M12 0L142 652H288Q418 652 491 589T565 396Q565 300 539 226T467 102T356 26T216 0H12ZM171 110H213Q257 110 295 126T362 176T407 262T424 387Q424 469 386 505T285 542H257L171 110Z" />
<glyph unicode="E" glyph-name="E" d="M38 0L169 652H594L572 537H282L254 395H496L474 280H232L198 115H496L474 0H38Z" />
<glyph unicode="F" glyph-name="F" d="M55 0L186 652H607L584 537H298L267 377H505L482 262H245L192 0H55Z" />
<glyph unicode="G" glyph-name="G" d="M294 -12Q177 -12 112 59T46 261Q46 345 72 418T144 546T254 632T393 664Q456 664 501 637T575 560L481 488Q463 517 441 531T386 545Q343 545 307 523T243 462T201 374T186 270Q186 195 216 150T318 105Q338 105 356 111T389
127L417 255H310L330 367H558L497 56Q460 27 408 8T294 -12Z" />
<glyph unicode="H" glyph-name="H" d="M4 0L134 652H271L219 399H414L464 652H601L471 0H334L390 279H196L141 0H4Z" />
<glyph unicode="I" glyph-name="I" d="M15 0L40 115H191L277 537H123L147 652H591L567 537H414L329 115H483L459 0H15Z" />
<glyph unicode="J" glyph-name="J" d="M223 -12Q182 -12 150 -3T91 21T45 56T8 100L96 182Q119 150 149 128T223 106Q280 106 309 138T353 242L412 537H155L178 652H570L482 212Q472 162 452 121T399 50T324 4T223 -12Z" />
<glyph unicode="K" glyph-name="K" d="M640 652L382 385L533 0H377L280 279L186 182L150 0H15L145 652H281L223 364H227L489 652H640Z" />
<glyph unicode="L" glyph-name="L" d="M65 0L195 652H332L225 115H517L495 0H65Z" />
<glyph unicode="M" glyph-name="M" d="M0 0L130 652H275L294 416L297 317H301L339 413L461 652H606L476 0H357L406 243Q411 267 420 303T441 379T462 454T481 516H477Q476 515 470 503T456 472T439 434T421 395T406 364T399 348L313 175H231L215 335Q215 337 214
350T212 383T210 425T207 467T205 500T204 516H200Q197 486 194 450T186 380T178 314T169 263L115 0H0Z" />
<glyph unicode="N" glyph-name="N" d="M11 0L142 652H279L357 310L383 169H387Q389 195 392 227T399 292T407 353T415 400L465 652H594L464 0H330L246 341L221 483H217Q214 456 211 424T205 360T197 298T188 243L141 0H11Z" />
<glyph unicode="O" glyph-name="O" d="M251 -12Q200 -12 160 6T90 59T46 143T30 254Q30 338 54 412T121 543T224 631T357 664Q408 664 448 646T517 593T561 509T576 398Q576 314 553 240T486 109T383 21T251 -12ZM265 106Q303 106 334 130T388 196T423 293T436
411Q436 545 344 545Q306 545 274 521T219 456T184 359T171 241Q171 106 265 106Z" />
<glyph unicode="P" glyph-name="P" d="M29 0L159 652H362Q410 652 451 643T522 613T570 559T588 479Q588 411 564 363T499 285T404 240T288 226H212L166 0H29ZM233 335H296Q371 335 410 366T450 459Q450 503 422 523T338 543H274L233 335Z" />
<glyph unicode="Q" glyph-name="Q" d="M266 100Q303 100 334 124T388 190T423 289T436 411Q436 545 344 545Q306 545 274 521T219 456T184 359T171 241Q171 169 194 135T266 100ZM407 -181Q328 -181 269 -138T180 -1Q110 21 70 87T30 254Q30 338 54 412T121 543T224
631T357 664Q408 664 448 646T517 593T561 509T576 398Q576 324 558 257T506 137T424 47T317 -4Q331 -39 359 -55T423 -71Q449 -71 468 -67T501 -58L522 -162Q505 -170 475 -175T407 -181Z" />
<glyph unicode="R" glyph-name="R" d="M15 0L146 652H345Q393 652 434 643T506 614T554 560T572 479Q572 435 559 399T524 336T470 289T404 258L510 0H358L272 239H200L153 0H15ZM222 348H282Q355 348 394 379T434 465Q434 507 407 525T326 543H260L222 348Z" />
<glyph unicode="S" glyph-name="S" d="M267 -12Q179 -12 119 24T24 115L113 193Q141 151 178 128T263 105Q308 105 336 124T364 178Q364 206 344 224T289 264L228 300Q206 313 186 330T151 369T128 416T119 474Q119 517 136 552T183 612T253 650T341 664Q410 664
467 633T557 555L470 480Q447 508 415 528T340 548Q306 548 283 531T260 484Q260 458 277 441T322 407L392 362Q416 347 436 330T472 293T495 247T504 188Q504 139 486 102T435 40T359 1T267 -12Z" />
<glyph unicode="T" glyph-name="T" d="M169 0L275 536H78L100 652H633L610 536H413L306 0H169Z" />
<glyph unicode="U" glyph-name="U" d="M249 -12Q200 -12 163 3T102 45T65 109T53 193Q53 222 55 247T64 300L134 652H271L198 285Q194 264 190 244T186 204Q186 156 206 131T267 106Q290 106 309 113T343 140T370 190T391 269L467 652H601L523 261Q508 184 484
132T425 48T347 2T249 -12Z" />
<glyph unicode="V" glyph-name="V" d="M145 0L88 652H232L249 331Q251 279 253 227T256 122H260Q270 146 282 174T307 231T331 285T352 331L499 652H650L311 0H145Z" />
<glyph unicode="W" glyph-name="W" d="M25 0L78 653H208L161 284Q159 266 156 245T150 203T144 161T138 125H142Q148 142 155 163T171 206T188 248T203 285L289 483H376L386 297Q387 283 387 263T388 219T389 171T389 127H394Q397 143 402 163T412 205T422 248T431
286L527 653H657L457 0H305V213Q304 244 304 278T307 339H304Q296 311 285 278T262 213L181 0H25Z" />
<glyph unicode="X" glyph-name="X" d="M-31 0L221 344L102 653H252L295 522Q302 502 310 472T326 415H330Q338 428 346 443T363 473T378 500T392 522L481 653H629L386 322L515 0H366L316 141Q310 159 302 189T285 243H281Q264 216 248 188T217 140L119 0H-31Z" />
<glyph unicode="Y" glyph-name="Y" d="M169 0L211 208L88 653H230L268 481Q276 443 284 402T301 322H305Q326 359 350 400T397 481L501 653H645L345 194L304 0H169Z" />
<glyph unicode="Z" glyph-name="Z" d="M489 0H8L24 81L395 539H112L136 653H597L581 571L209 113H512L489 0Z" />
<glyph unicode="[" glyph-name="bracketleft" d="M109 -152L283 708H573L559 635H370L226 -79H414L400 -152H109Z" />
<glyph unicode="\" glyph-name="backslash" d="M323 -160L168 710H276L431 -160H323Z" />
<glyph unicode="]" glyph-name="bracketright" d="M14 -152L28 -79H217L361 635H174L188 708H479L305 -152H14Z" />
<glyph unicode="^" glyph-name="asciicircum" d="M89 276L244 670H356L511 276H397L348 411L302 546H298L252 411L203 276H89Z" />
<glyph unicode="_" glyph-name="underscore" d="M-32 -159L-11 -56H469L448 -159H-32Z" />
<glyph unicode="`" glyph-name="grave" d="M387 569L233 740L350 827L471 634L387 569Z" />
<glyph unicode="a" glyph-name="a" d="M197 -12Q122 -12 79 37T35 180Q35 248 56 307T115 411T200 482T301 508Q350 508 385 491T438 443H442L463 496H573L473 0H362L364 68H360Q325 30 282 9T197 -12ZM248 100Q277 100 310 118T372 176L408 349Q394 374 370 385T325
396Q295 396 268 381T221 339T188 276T176 197Q176 146 195 123T248 100Z" />
<glyph unicode="b" glyph-name="b" d="M287 -12Q244 -12 208 6T152 53H150L129 0H16L156 701H293L261 542L232 436H234Q268 469 309 488T390 508Q468 508 511 458T554 314Q554 246 532 187T474 83T389 14T287 -12ZM268 100Q296 100 322 115T368 156T400 218T412
297Q412 349 391 372T337 396Q309 396 277 377T216 316L182 146Q197 121 220 111T268 100Z" />
<glyph unicode="c" glyph-name="c" d="M298 -12Q249 -12 206 1T131 42T79 110T60 205Q60 273 84 329T151 424T248 486T363 508Q396 508 425 501T478 481T521 452T554 418L471 342Q423 396 353 396Q324 396 297 383T247 345T212 289T199 218Q199 188 208 166T234
129T272 107T318 100Q355 100 384 116T443 156L491 63Q454 28 405 8T298 -12Z" />
<glyph unicode="d" glyph-name="d" d="M196 -12Q122 -12 79 37T35 180Q35 248 56 307T115 411T200 482T301 508Q350 508 382 492T433 448H435L447 542L478 701H614L473 0H362L364 68H360Q325 30 282 9T196 -12ZM248 100Q277 100 310 118T372 176L408 349Q393 374
370 385T325 396Q295 396 268 381T221 339T188 276T176 197Q176 146 195 123T248 100Z" />
<glyph unicode="e" glyph-name="e" d="M267 -12Q219 -12 179 1T109 42T63 110T46 208Q46 275 69 330T133 425T225 486T334 508Q382 508 420 494T483 454T522 392T536 313Q536 282 530 252T519 210H183Q184 177 193 155T218 119T254 99T299 93Q341 93 377 107T447
145L493 54Q449 23 392 6T267 -12ZM330 403Q312 403 293 397T256 377T223 344T197 298H409Q410 303 410 307T410 316Q410 359 389 381T330 403Z" />
<glyph unicode="f" glyph-name="f" d="M144 0L222 389H88L109 490L244 496L248 517Q287 713 481 713Q537 713 576 697T640 661L579 575Q559 590 538 597T487 604Q447 604 420 584T383 516L379 496H552L531 389H358L281 0H144Z" />
<glyph unicode="g" glyph-name="g" d="M207 -196Q139 -196 90 -178T3 -131L62 -36Q91 -60 128 -74T204 -88Q226 -88 248 -85T288 -71T322 -43T345 4L366 79H362Q333 51 292 33T210 15Q131 15 86 65T41 200Q41 267 63 323T121 421T204 485T301 508Q350 508 385
491T438 443H442L465 496H573L475 9Q463 -50 437 -89T376 -152T297 -186T207 -196ZM258 127Q319 127 374 187L408 347Q374 396 323 396Q298 396 273 384T228 348T196 293T183 221Q183 172 202 150T258 127Z" />
<glyph unicode="h" glyph-name="h" d="M16 0L156 701H293L251 495L228 414H232Q270 454 317 481T416 508Q479 508 511 476T544 381Q544 346 536 306L475 0H338L396 290Q399 305 401 317T403 341Q403 391 352 391Q320 391 284 369T212 303L153 0H16Z" />
<glyph unicode="i" glyph-name="i" d="M342 -12Q270 -12 227 25T184 130Q184 144 186 158T194 190L243 389H80L102 496H402L328 183Q326 176 325 170T324 157Q324 126 341 113T384 100Q402 100 420 105T462 120L490 17Q458 3 423 -4T342 -12ZM600 575Q566 575
540 594T514 653Q514 672 521 689T542 720T574 740T614 748Q652 748 676 728T701 670Q701 650 693 633T672 602T640 582T600 575Z" />
<glyph unicode="j" glyph-name="j" d="M138 -196Q83 -196 43 -181T-24 -149L32 -53Q53 -68 77 -78T130 -88Q181 -88 208 -59T249 37L320 389H116L138 496H477L383 26Q361 -82 303 -139T138 -196ZM420 575Q386 575 360 594T334 653Q334 672 341 689T362 720T394
740T434 748Q472 748 496 728T521 670Q521 650 513 633T492 602T460 582T420 575Z" />
<glyph unicode="k" glyph-name="k" d="M21 0L162 701H298L215 291H219L450 496H609L385 292L524 0H385L290 209L181 118L158 0H21Z" />
<glyph unicode="l" glyph-name="l" d="M326 -12Q259 -12 217 28T174 144Q174 158 175 173T182 206L269 594H127L150 701H426L314 190Q312 182 311 173T310 153Q310 125 326 113T368 100Q390 100 407 105T450 121L479 20Q441 3 405 -4T326 -12Z" />
<glyph unicode="m" glyph-name="m" d="M-20 0L78 496H176L174 432H178Q201 463 233 485T310 508Q372 508 379 436Q432 508 509 508Q545 508 566 486T587 419Q587 406 586 395T581 368L506 0H379L449 342Q451 351 451 356T452 366Q452 392 431 392Q414 392 400
379T368 340L299 0H189L260 342Q262 351 262 356T262 366Q262 392 240 392Q222 392 206 380T173 339L108 0H-20Z" />
<glyph unicode="n" glyph-name="n" d="M16 0L113 496H224L218 411H222Q241 429 263 446T311 477T362 499T416 508Q479 508 511 476T544 381Q544 346 536 306L475 0H338L396 290Q399 305 401 317T403 341Q403 391 352 391Q320 391 284 369T212 303L153 0H16Z" />
<glyph unicode="o" glyph-name="o" d="M254 -12Q203 -12 163 4T94 49T50 118T35 209Q35 276 59 331T123 425T215 486T323 508Q374 508 415 492T484 447T528 378T543 287Q543 220 519 165T455 71T363 10T254 -12ZM264 100Q291 100 316 113T360 151T392 209T404
283Q404 337 380 366T313 396Q286 396 261 383T216 345T185 287T173 213Q173 159 197 130T264 100Z" />
<glyph unicode="p" glyph-name="p" d="M-22 -184L115 496H226L225 426H228Q265 463 305 485T392 508Q467 508 510 458T554 314Q554 246 535 187T481 83T396 14T287 -12Q247 -12 212 3T157 47H155L141 -50L115 -184H-22ZM273 100Q301 100 326 115T371 156T401 218T412
297Q412 349 391 372T337 396Q309 396 278 377T218 316L182 146Q197 121 222 111T273 100Z" />
<glyph unicode="q" glyph-name="q" d="M301 -184L329 -47Q330 -40 333 -28T341 1T351 34T364 68H360Q325 30 282 9T196 -12Q122 -12 79 37T35 180Q35 248 56 307T115 411T200 482T301 508Q350 508 385 491T438 443H442L465 496H573L436 -184H301ZM248 100Q277
100 310 118T372 176L408 349Q393 374 370 385T325 396Q295 396 268 381T221 339T188 276T176 197Q176 146 195 123T248 100Z" />
<glyph unicode="r" glyph-name="r" d="M73 0L171 497L282 496L268 364H272Q311 430 365 469T477 508Q543 508 575 487L526 369Q493 386 450 386Q400 386 349 342T254 219L210 0H73Z" />
<glyph unicode="s" glyph-name="s" d="M266 -12Q196 -12 138 12T38 79L114 165Q152 126 197 108T288 90Q323 90 343 100T363 132Q363 154 342 166T265 196Q190 221 151 256T111 349Q111 388 128 418T174 468T240 498T320 508Q393 508 444 485T530 427L455 347Q425
371 386 388T305 406Q275 406 257 396T239 365Q239 345 262 332T343 299Q376 288 403 275T450 244T481 203T492 150Q492 108 475 78T427 27T355 -2T266 -12Z" />
<glyph unicode="t" glyph-name="t" d="M309 -12Q220 -12 181 28T141 138Q141 153 142 168T149 203L187 389H57L77 490L214 496L265 648H377L345 496H555L535 389H322L284 208Q281 194 280 186T279 170Q279 132 299 116T351 100Q382 100 410 110T461 135L502 40Q469
17 418 3T309 -12Z" />
<glyph unicode="u" glyph-name="u" d="M167 -12Q104 -12 72 20T39 116Q39 150 47 190L108 496H245L187 206Q184 191 182 179T179 156Q179 105 231 105Q296 105 368 194L427 496H564L466 0H355L361 85H357Q339 67 317 50T271 19T220 -3T167 -12Z" />
<glyph unicode="v" glyph-name="v" d="M162 0L70 496H205L241 251Q246 214 250 177T258 101H262Q279 138 298 176T338 252L466 496H602L321 0H162Z" />
<glyph unicode="w" glyph-name="w" d="M31 0L47 496H178L161 255Q158 218 155 183T149 109H153Q165 147 177 183T205 256L276 435H376L378 256Q378 218 377 183T374 109H378Q391 147 401 182T423 255L499 496H625L447 0H292L296 181Q297 216 300 249T305 322H301Q295
302 291 286T282 253T271 219T258 179L192 0H31Z" />
<glyph unicode="x" glyph-name="x" d="M-14 0L211 257L95 496H232L273 409Q276 402 280 391T290 367T299 344T306 326H310Q314 332 321 343T336 367T352 391T364 409L430 496H583L366 247L494 0H353L310 89Q303 103 293 127T274 168H268Q255 151 238 127T209 89L139
0H-14Z" />
<glyph unicode="y" glyph-name="y" d="M44 -194Q17 -194 -8 -187T-48 -170L-10 -77Q2 -83 19 -87T52 -92Q92 -92 118 -77T165 -27L183 2L70 496H202L243 280Q246 262 249 242T255 200T260 160T265 124H269Q276 140 286 159T306 200T327 241T347 280L465 496H604L307
-14Q253 -107 192 -150T44 -194Z" />
<glyph unicode="z" glyph-name="z" d="M23 0L38 81L356 391H99L122 496H553L538 416L222 107H490L470 0H23Z" />
<glyph unicode="{" glyph-name="braceleft" d="M288 -152Q168 -152 168 -55Q168 -28 176 4T194 67T212 125T220 169Q220 182 216 194T198 215T161 231T96 238L114 318Q157 319 185 326T229 344T254 368T265 395Q270 418 272 438T277 477T282 518T290 565Q307 646
347 677T459 708H580L565 635H488Q453 635 430 619T398 560Q390 520 384 481T370 397Q359 340 334 313T266 276V272Q297 265 312 246T327 192Q327 169 320 139T304 77T288 18T281 -31Q281 -57 298 -68T347 -79H422L407 -152H288Z" />
<glyph unicode="|" glyph-name="bar" d="M240 -250V750H360V-250H240Z" />
<glyph unicode="}" glyph-name="braceright" d="M13 -152L29 -79H105Q140 -79 163 -63T195 -4Q203 36 209 75T223 159Q235 216 260 243T327 280L328 284Q296 291 281 310T266 364Q266 387 273 417T289 479T305 538T312 587Q312 613 295 624T246 635H172L186 708H305Q425
708 425 611Q425 584 417 552T400 489T382 431T374 387Q374 374 378 362T396 341T433 325T497 318L480 238Q437 237 409 230T364 212T339 188T328 161Q323 138 321 118T316 79T312 38T304 -9Q287 -90 246 -121T134 -152H13Z" />
<glyph unicode="~" glyph-name="asciitilde" d="M385 243Q354 243 331 255T289 281T252 307T213 319Q192 319 173 300T138 238L55 275Q87 353 128 385T215 417Q246 417 269 405T311 379T348 353T387 341Q409 341 428 360T462 422L545 384Q513 307 472 275T385 243Z" />
<glyph unicode="&#xa0;" glyph-name="uni00A0" />
<glyph unicode="&#xa1;" glyph-name="exclamdown" d="M332 239L296 -43L274 -176H133L160 -43L242 239H332ZM331 506Q366 506 387 483T409 424Q409 401 401 381T379 346T345 322T301 313Q266 313 245 336T223 395Q223 418 231 438T253 473T287 497T331 506Z" />
<glyph unicode="&#xa2;" glyph-name="cent" d="M218 272Q218 196 273 174L328 442Q278 425 248 379T218 272ZM227 -47L248 56Q174 67 129 120T83 260Q83 324 103 376T160 467T246 528T352 559L372 655H447L427 558Q467 551 497 530T546 486L470 409Q456 423 442
433T405 449L347 169Q374 174 395 187T434 214L483 129Q451 100 411 81T324 56L303 -47H227Z" />
<glyph unicode="&#xa3;" glyph-name="sterling" d="M15 0L32 84Q98 112 137 161T179 275H67L83 351L174 357Q172 375 171 392T169 424Q169 476 185 517T232 588T303 632T394 647Q450 647 496 623T571 559L484 487Q467 510 444 523T394 537Q351 537 323 508T295
405Q295 394 296 382T298 357H465L449 275H302Q299 224 280 189T222 119L220 115H478L457 0H15Z" />
<glyph unicode="&#xa4;" glyph-name="currency" d="M74 69L8 138L101 217Q84 251 84 295Q84 337 99 374T142 442L76 520L161 591L231 505Q256 516 283 522T341 529Q400 529 441 503L541 587L603 510L505 431Q512 416 515 399T518 363Q518 321 503 283T459 214L526
130L443 61L371 154Q320 131 262 131Q206 131 168 153L74 69ZM281 227Q303 227 324 236T361 261T387 301T397 353Q397 391 377 413T323 436Q300 436 279 427T242 400T217 360T207 309Q207 271 226 249T281 227Z" />
<glyph unicode="&#xa5;" glyph-name="yen" d="M173 0L201 141H31L45 206H213L224 263H55L70 329H211L102 636H239L280 495Q288 462 296 425T312 353H315Q332 385 353 423T395 495L487 636H632L402 329H547L531 263H360L349 206H523L509 141H337L311 0H173Z" />
<glyph unicode="&#xa6;" glyph-name="brokenbar" d="M240 -250V190H360V-250H240ZM240 310V750H360V310H240Z" />
<glyph unicode="&#xa7;" glyph-name="section" d="M229 -74Q175 -74 125 -53T34 14L103 94Q129 67 160 47T229 27Q261 27 278 40T296 76Q296 89 288 100T266 121T235 141T198 162Q174 176 153 191T117 224T94 266T85 319Q85 370 114 406T189 465Q173 494 173 528Q173
563 186 592T222 644T278 678T350 690Q398 690 442 667T520 606L446 534Q426 555 403 570T349 586Q327 586 312 576T297 542Q297 519 319 503T383 460Q407 445 430 429T472 392T501 347T512 291Q512 236 485 199T410 138Q419 117 419 91Q419 53 405 23T366 -29T306
-62T229 -74ZM279 252Q296 242 315 231T352 206Q372 217 382 232T393 272Q393 303 370 323T312 364Q296 374 280 383T248 404Q228 394 215 378T202 339Q202 311 222 293T279 252Z" />
<glyph unicode="&#xa8;" glyph-name="dieresis" d="M253 572Q228 572 211 587T194 632Q194 662 215 685T270 708Q296 708 313 692T330 648Q330 616 308 594T253 572ZM464 572Q438 572 421 587T404 632Q404 662 426 685T480 708Q506 708 523 692T540 648Q540 616
518 594T464 572Z" />
<glyph unicode="&#xa9;" glyph-name="copyright" d="M234 -9Q186 -9 146 9T77 61T32 143T16 252Q16 343 44 418T120 546T232 627T371 655Q420 655 460 637T529 586T574 505T590 397Q590 306 564 232T490 104T378 21T234 -9ZM246 48Q305 48 356 74T446 146T506
255T528 391Q528 485 484 541T358 598Q299 598 248 573T159 502T100 395T78 258Q78 160 122 104T246 48ZM279 128Q216 128 181 169T145 280Q145 334 162 377T209 452T276 499T355 516Q395 516 420 499T463 457L403 405Q384 435 352 435Q328 435 309 423T275 391T253
343T245 285Q245 213 299 211Q320 210 336 218T370 240L406 176Q383 156 350 142T279 128Z" />
<glyph unicode="&#xaa;" glyph-name="ordfeminine" d="M269 367Q224 367 197 398T169 496Q169 545 184 585T225 653T284 696T354 711Q404 711 435 670H438L453 703H527L463 375H384L383 411H381Q359 394 332 381T269 367ZM319 445Q353 445 387 476L412 610Q401
621 389 626T358 632Q342 632 326 624T298 599T277 560T269 508Q269 476 282 461T319 445Z" />
<glyph unicode="&#xab;" glyph-name="guillemotleft" d="M175 29L42 201L62 311L263 474L312 419L166 245L244 80L175 29ZM440 29L307 201L327 311L528 474L577 419L431 245L509 80L440 29Z" />
<glyph unicode="&#xac;" glyph-name="logicalnot" d="M427 96V282H73V378H527V96H427Z" />
<glyph unicode="&#xad;" glyph-name="uni00AD" d="M73 282V378H527V282H73Z" />
<glyph unicode="&#xae;" glyph-name="registered" d="M308 313Q272 313 243 325T192 359T159 411T147 478Q147 529 165 572T215 647T292 697T388 715Q423 715 452 703T503 669T537 617T549 549Q549 498 532 455T482 381T406 331T308 313ZM317 358Q354 358 387
372T444 410T482 469T496 545Q496 602 465 636T379 671Q342 671 309 657T252 618T213 558T199 482Q199 425 231 392T317 358ZM357 574H335L324 516H345Q364 516 374 526T385 550Q385 561 378 567T357 574ZM249 416L289 614H375Q405 614 424 601T444 557Q444 533
430 515T391 487L423 416H366L339 478H316L304 416H249Z" />
<glyph unicode="&#xaf;" glyph-name="overscore" d="M216 593L233 680H516L499 593H216Z" />
<glyph unicode="&#xb0;" glyph-name="degree" d="M317 404Q266 404 234 436T201 520Q201 557 214 587T251 640T305 674T371 686Q427 686 458 654T489 570Q489 533 476 503T440 450T385 416T317 404ZM330 468Q348 468 364 475T391 495T409 525T416 561Q416 590
402 607T361 624Q343 624 327 617T299 596T281 566T274 530Q274 502 289 485T330 468Z" />
<glyph unicode="&#xb1;" glyph-name="plusminus" d="M250 154V296H73V393H250V564H350V393H527V296H350V154H250ZM73 0V98H527V0H73Z" />
<glyph unicode="&#xb2;" glyph-name="two.sups" d="M179 376L190 431Q295 500 346 551T398 646Q398 666 387 678T350 691Q334 691 320 681T289 655L233 714Q267 744 297 761T369 778Q429 778 464 748T499 665Q499 610 460 562T355 460H473L456 376H179Z" />
<glyph unicode="&#xb3;" glyph-name="three.sups" d="M330 364Q276 364 241 386T183 444L248 490Q262 468 280 456T322 444Q351 444 368 456T385 492Q385 516 368 530T299 544L311 605Q339 605 357 610T385 623T400 642T404 663Q404 679 393 689T361 699Q343 699
329 694T295 674L253 740Q287 761 317 769T384 778Q437 778 470 752T504 680Q504 643 485 616T424 574Q452 560 467 537T482 488Q482 458 470 435T438 397T389 373T330 364Z" />
<glyph unicode="&#xb4;" glyph-name="acute" d="M334 578L274 656L459 822L541 718L334 578Z" />
<glyph unicode="&#xb5;" glyph-name="uni00B5" d="M-32 -195L108 496H245L184 207Q172 151 185 127T236 103Q270 103 300 123T365 187L427 496H563Q549 439 535 376T509 259T490 168T482 126Q482 110 489 104T508 97Q513 97 516 97T527 99L523 -1Q510 -6 493 -9T452
-12Q405 -12 384 12T360 85H356Q325 42 287 17T207 -8Q187 -8 168 -2T139 23Q127 -40 119 -89T105 -195H-32Z" />
<glyph unicode="&#xb6;" glyph-name="paragraph" d="M284 200Q240 200 201 212T132 247T85 304T67 383Q67 453 91 504T156 588T250 636T361 652H395L304 200H284ZM302 -80L446 652H583L438 -80H302Z" />
<glyph unicode="&#xb7;" glyph-name="middot" d="M251 236Q210 236 186 263T162 331Q162 357 171 380T196 421T236 449T286 459Q327 459 351 432T376 363Q376 337 367 314T341 274T301 246T251 236Z" />
<glyph unicode="&#xb8;" glyph-name="cedilla" d="M94 -239V-180Q152 -178 176 -168T205 -135Q206 -120 192 -110T135 -94L206 11H292L246 -61Q284 -70 299 -87T310 -134Q302 -186 246 -211T94 -239Z" />
<glyph unicode="&#xb9;" glyph-name="one.sups" d="M175 376L192 460H309L350 660H243L255 723Q278 725 296 728T331 737T362 750T392 766H470L410 460H520L502 376H175Z" />
<glyph unicode="&#xba;" glyph-name="ordmasculine" d="M313 367Q283 367 258 376T214 402T185 446T174 506Q174 557 191 595T236 659T300 698T375 711Q405 711 430 702T473 675T502 631T513 572Q513 521 497 483T453 419T389 380T313 367ZM325 446Q347 446 364
457T392 485T408 525T414 570Q414 600 402 617T364 634Q342 634 325 623T296 594T278 554T272 510Q272 480 285 463T325 446Z" />
<glyph unicode="&#xbb;" glyph-name="guillemotright" d="M52 29L4 84L150 259L72 424L141 474L273 302L254 192L52 29ZM317 29L269 84L415 259L337 424L406 474L538 302L519 192L317 29Z" />
<glyph unicode="&#xbc;" glyph-name="onequarter" d="M69 324L112 540H32L44 600Q82 605 104 613T152 636H230L169 324H69ZM5 22L-51 90L170 266L209 222L5 22ZM382 373L344 417L546 617L602 549L382 373ZM386 0L399 63H234L244 110L401 323L462 288L336 124H411L425
193H508L494 124H545L533 63H482L470 0H386Z" />
<glyph unicode="&#xbd;" glyph-name="onehalf" d="M69 324L112 540H32L44 600Q82 605 104 613T152 636H230L169 324H69ZM5 22L-51 90L170 266L209 222L5 22ZM382 373L344 417L546 617L602 549L382 373ZM260 0L270 53Q306 77 336 98T390 140T426 178T439 213Q439
244 408 244Q388 244 371 234T337 206L289 259Q316 289 353 306T435 323Q481 323 509 301T538 232Q538 209 529 188T504 148T467 111T421 76H541L525 0H260Z" />
<glyph unicode="&#xbe;" glyph-name="threequarters" d="M108 312Q63 312 35 326T-19 366L27 420Q42 403 61 392T105 381Q127 381 141 389T156 418Q156 435 140 445T84 455L94 506Q126 506 146 516T167 547Q167 561 157 567T131 573Q114 573 97 566T65 546L28
599Q53 620 88 633T162 647Q207 647 235 627T264 570Q264 535 242 514T186 485Q217 477 233 460T250 413Q250 389 239 370T208 338T163 319T108 312ZM5 22L-51 90L170 266L209 222L5 22ZM382 373L344 417L546 617L602 549L382 373ZM386 0L399 63H234L244 110L401
323L462 288L336 124H411L425 193H508L494 124H545L533 63H482L470 0H386Z" />
<glyph unicode="&#xbf;" glyph-name="questiondown" d="M364 240Q363 205 352 178T324 128T287 90T247 59Q213 36 195 17T177 -28Q177 -52 191 -64T232 -77Q264 -77 289 -63T342 -20L413 -87Q374 -135 325 -161T207 -187Q172 -187 142 -179T89 -155T53 -115T40
-57Q40 -23 50 3T78 50T119 88T169 125Q186 137 200 148T224 173T241 202T251 240H364ZM346 507Q381 507 402 484T424 425Q424 402 416 382T394 347T360 323T316 314Q282 314 260 337T238 396Q238 419 246 439T268 474T302 498T346 507Z" />
<glyph unicode="&#xc0;" glyph-name="Agrave" d="M266 354L227 267H366L362 353Q359 401 357 448T353 547H349Q328 499 308 451T266 354ZM-43 0L292 652H455L523 0H379L371 164H181L108 0H-43ZM399 676L235 810L329 897L476 743L399 676Z" />
<glyph unicode="&#xc1;" glyph-name="Aacute" d="M266 354L227 267H366L362 353Q359 401 357 448T353 547H349Q328 499 308 451T266 354ZM-43 0L292 652H455L523 0H379L371 164H181L108 0H-43ZM339 686L287 765L482 889L543 788L339 686Z" />
<glyph unicode="&#xc2;" glyph-name="Acircumflex" d="M266 354L227 267H366L362 353Q359 401 357 448T353 547H349Q328 499 308 451T266 354ZM-43 0L292 652H455L523 0H379L371 164H181L108 0H-43ZM254 685L198 729L320 853H480L560 724L493 686L395 777H391L254 685Z" />
<glyph unicode="&#xc3;" glyph-name="Atilde" d="M266 354L227 267H366L362 353Q359 401 357 448T353 547H349Q328 499 308 451T266 354ZM-43 0L292 652H455L523 0H379L371 164H181L108 0H-43ZM450 692Q424 692 405 701T372 721T346 741T322 750Q308 750 297 740T277
701L184 708Q201 784 242 818T335 852Q361 852 379 843T412 823T438 803T462 794Q476 794 488 805T508 843L601 836Q584 760 543 726T450 692Z" />
<glyph unicode="&#xc4;" glyph-name="Adieresis" d="M266 354L227 267H366L362 353Q359 401 357 448T353 547H349Q328 499 308 451T266 354ZM-43 0L292 652H455L523 0H379L371 164H181L108 0H-43ZM279 701Q255 701 239 716T222 759Q222 772 227 785T242 810T265
827T295 834Q318 834 335 819T352 777Q352 763 347 750T332 725T309 708T279 701ZM490 701Q465 701 449 716T432 759Q432 772 437 785T453 810T476 827T506 834Q529 834 546 819T563 777Q563 749 543 725T490 701Z" />
<glyph unicode="&#xc5;" glyph-name="Aring" d="M266 354L227 267H366L362 353Q359 401 357 448T353 547H349Q328 499 308 451T266 354ZM-43 0L292 652H455L523 0H379L371 164H181L108 0H-43ZM389 697Q346 697 315 717T283 783Q283 805 292 825T319 860T358 883T406
892Q427 892 446 887T480 872T504 845T513 807Q513 784 504 764T477 729T438 706T389 697ZM391 750Q410 750 424 765T439 802Q439 817 430 828T404 839Q384 839 370 824T356 788Q356 772 365 761T391 750Z" />
<glyph unicode="&#xc6;" glyph-name="AE" d="M257 360L207 262H300L358 550H354Q329 500 305 453T257 360ZM-65 0L287 652H647L625 537H475L447 395H567L545 281H424L390 115H549L527 0H248L280 159H155L75 0H-65Z" />
<glyph unicode="&#xc7;" glyph-name="Ccedilla" d="M317 -12Q260 -12 215 6T137 60T87 146T69 261Q69 345 96 418T169 546T279 632T416 664Q473 664 517 637T589 560L496 488Q478 517 457 531T409 545Q367 545 331 523T268 462T226 374T210 270Q210 194 241 150T346
106Q375 106 403 120T456 156L514 68Q499 54 479 40T434 15T380 -4T317 -12ZM151 -239V-180Q209 -178 233 -168T262 -135Q263 -120 249 -110T192 -94L263 11H349L303 -61Q341 -70 356 -87T367 -134Q359 -186 303 -211T151 -239Z" />
<glyph unicode="&#xc8;" glyph-name="Egrave" d="M38 0L169 652H594L572 537H282L254 395H496L474 280H232L198 115H496L474 0H38ZM420 676L256 810L350 897L497 743L420 676Z" />
<glyph unicode="&#xc9;" glyph-name="Eacute" d="M38 0L169 652H594L572 537H282L254 395H496L474 280H232L198 115H496L474 0H38ZM360 686L308 765L503 889L564 788L360 686Z" />
<glyph unicode="&#xca;" glyph-name="Ecircumflex" d="M38 0L169 652H594L572 537H282L254 395H496L474 280H232L198 115H496L474 0H38ZM275 685L219 729L341 853H501L581 724L514 686L416 777H412L275 685Z" />
<glyph unicode="&#xcb;" glyph-name="Edieresis" d="M38 0L169 652H594L572 537H282L254 395H496L474 280H232L198 115H496L474 0H38ZM300 701Q276 701 260 716T243 759Q243 772 248 785T263 810T286 827T316 834Q339 834 356 819T373 777Q373 763 368 750T353
725T330 708T300 701ZM511 701Q486 701 470 716T453 759Q453 772 458 785T474 810T497 827T527 834Q550 834 567 819T584 777Q584 749 564 725T511 701Z" />
<glyph unicode="&#xcc;" glyph-name="Igrave" d="M15 0L40 115H191L277 537H123L147 652H591L567 537H414L329 115H483L459 0H15ZM399 676L235 810L329 897L476 743L399 676Z" />
<glyph unicode="&#xcd;" glyph-name="Iacute" d="M15 0L40 115H191L277 537H123L147 652H591L567 537H414L329 115H483L459 0H15ZM339 686L287 765L482 889L543 788L339 686Z" />
<glyph unicode="&#xce;" glyph-name="Icircumflex" d="M15 0L40 115H191L277 537H123L147 652H591L567 537H414L329 115H483L459 0H15ZM254 685L198 729L320 853H480L560 724L493 686L395 777H391L254 685Z" />
<glyph unicode="&#xcf;" glyph-name="Idieresis" d="M15 0L40 115H191L277 537H123L147 652H591L567 537H414L329 115H483L459 0H15ZM279 701Q255 701 239 716T222 759Q222 772 227 785T242 810T265 827T295 834Q318 834 335 819T352 777Q352 763 347 750T332
725T309 708T279 701ZM490 701Q465 701 449 716T432 759Q432 772 437 785T453 810T476 827T506 834Q529 834 546 819T563 777Q563 749 543 725T490 701Z" />
<glyph unicode="&#xd0;" glyph-name="Eth" d="M16 0L77 304H5L19 369L91 374L146 652H292Q422 652 495 589T569 396Q569 300 543 226T471 102T360 26T220 0H16ZM175 110H217Q261 110 299 126T366 176T411 262T428 387Q428 469 390 505T289 542H261L228 374H343L327
304H214L175 110Z" />
<glyph unicode="&#xd1;" glyph-name="Ntilde" d="M11 0L142 652H279L357 310L383 169H387Q389 195 392 227T399 292T407 353T415 400L465 652H594L464 0H330L246 341L221 483H217Q214 456 211 424T205 360T197 298T188 243L141 0H11ZM700 692Q674 692 655 701T622
721T596 741T572 750Q558 750 547 740T527 701L434 708Q451 784 492 818T585 852Q611 852 629 843T662 823T688 803T712 794Q726 794 738 805T758 843L851 836Q834 760 793 726T700 692Z" />
<glyph unicode="&#xd2;" glyph-name="Ograve" d="M251 -12Q200 -12 160 6T90 59T46 143T30 254Q30 338 54 412T121 543T224 631T357 664Q408 664 448 646T517 593T561 509T576 398Q576 314 553 240T486 109T383 21T251 -12ZM265 106Q303 106 334 130T388 196T423
293T436 411Q436 545 344 545Q306 545 274 521T219 456T184 359T171 241Q171 106 265 106ZM399 676L235 810L329 897L476 743L399 676Z" />
<glyph unicode="&#xd3;" glyph-name="Oacute" d="M251 -12Q200 -12 160 6T90 59T46 143T30 254Q30 338 54 412T121 543T224 631T357 664Q408 664 448 646T517 593T561 509T576 398Q576 314 553 240T486 109T383 21T251 -12ZM265 106Q303 106 334 130T388 196T423
293T436 411Q436 545 344 545Q306 545 274 521T219 456T184 359T171 241Q171 106 265 106ZM339 686L287 765L482 889L543 788L339 686Z" />
<glyph unicode="&#xd4;" glyph-name="Ocircumflex" d="M251 -12Q200 -12 160 6T90 59T46 143T30 254Q30 338 54 412T121 543T224 631T357 664Q408 664 448 646T517 593T561 509T576 398Q576 314 553 240T486 109T383 21T251 -12ZM265 106Q303 106 334 130T388
196T423 293T436 411Q436 545 344 545Q306 545 274 521T219 456T184 359T171 241Q171 106 265 106ZM254 685L198 729L320 853H480L560 724L493 686L395 777H391L254 685Z" />
<glyph unicode="&#xd5;" glyph-name="Otilde" d="M251 -12Q200 -12 160 6T90 59T46 143T30 254Q30 338 54 412T121 543T224 631T357 664Q408 664 448 646T517 593T561 509T576 398Q576 314 553 240T486 109T383 21T251 -12ZM265 106Q303 106 334 130T388 196T423
293T436 411Q436 545 344 545Q306 545 274 521T219 456T184 359T171 241Q171 106 265 106ZM450 692Q424 692 405 701T372 721T346 741T322 750Q308 750 297 740T277 701L184 708Q201 784 242 818T335 852Q361 852 379 843T412 823T438 803T462 794Q476 794 488
805T508 843L601 836Q584 760 543 726T450 692Z" />
<glyph unicode="&#xd6;" glyph-name="Odieresis" d="M251 -12Q200 -12 160 6T90 59T46 143T30 254Q30 338 54 412T121 543T224 631T357 664Q408 664 448 646T517 593T561 509T576 398Q576 314 553 240T486 109T383 21T251 -12ZM265 106Q303 106 334 130T388 196T423
293T436 411Q436 545 344 545Q306 545 274 521T219 456T184 359T171 241Q171 106 265 106ZM279 701Q255 701 239 716T222 759Q222 772 227 785T242 810T265 827T295 834Q318 834 335 819T352 777Q352 763 347 750T332 725T309 708T279 701ZM490 701Q465 701 449
716T432 759Q432 772 437 785T453 810T476 827T506 834Q529 834 546 819T563 777Q563 749 543 725T490 701Z" />
<glyph unicode="&#xd7;" glyph-name="multiply" d="M156 114L87 184L231 329L87 475L156 545L300 398L444 545L513 475L369 329L513 184L444 114L300 260L156 114Z" />
<glyph unicode="&#xd8;" glyph-name="Oslash" d="M251 -12Q166 -12 110 38L41 -41L-24 9L60 106Q30 166 30 253Q30 337 54 412T121 543T224 631T357 664Q442 664 498 613L567 693L633 643L547 544Q576 483 576 398Q576 314 553 240T486 109T383 21T251 -12ZM166
263Q166 254 166 246T167 230L412 514Q389 545 344 545Q306 545 274 521T217 457T180 367T166 263ZM265 106Q303 106 335 130T390 194T427 285T441 389Q441 397 441 405T440 420L195 137Q220 106 265 106Z" />
<glyph unicode="&#xd9;" glyph-name="Ugrave" d="M249 -12Q200 -12 163 3T102 45T65 109T53 193Q53 222 55 247T64 300L134 652H271L198 285Q194 264 190 244T186 204Q186 156 206 131T267 106Q290 106 309 113T343 140T370 190T391 269L467 652H601L523 261Q508
184 484 132T425 48T347 2T249 -12ZM399 676L235 810L329 897L476 743L399 676Z" />
<glyph unicode="&#xda;" glyph-name="Uacute" d="M249 -12Q200 -12 163 3T102 45T65 109T53 193Q53 222 55 247T64 300L134 652H271L198 285Q194 264 190 244T186 204Q186 156 206 131T267 106Q290 106 309 113T343 140T370 190T391 269L467 652H601L523 261Q508
184 484 132T425 48T347 2T249 -12ZM339 686L287 765L482 889L543 788L339 686Z" />
<glyph unicode="&#xdb;" glyph-name="Ucircumflex" d="M249 -12Q200 -12 163 3T102 45T65 109T53 193Q53 222 55 247T64 300L134 652H271L198 285Q194 264 190 244T186 204Q186 156 206 131T267 106Q290 106 309 113T343 140T370 190T391 269L467 652H601L523
261Q508 184 484 132T425 48T347 2T249 -12ZM254 685L198 729L320 853H480L560 724L493 686L395 777H391L254 685Z" />
<glyph unicode="&#xdc;" glyph-name="Udieresis" d="M249 -12Q200 -12 163 3T102 45T65 109T53 193Q53 222 55 247T64 300L134 652H271L198 285Q194 264 190 244T186 204Q186 156 206 131T267 106Q290 106 309 113T343 140T370 190T391 269L467 652H601L523 261Q508
184 484 132T425 48T347 2T249 -12ZM279 701Q255 701 239 716T222 759Q222 772 227 785T242 810T265 827T295 834Q318 834 335 819T352 777Q352 763 347 750T332 725T309 708T279 701ZM490 701Q465 701 449 716T432 759Q432 772 437 785T453 810T476 827T506 834Q529
834 546 819T563 777Q563 749 543 725T490 701Z" />
<glyph unicode="&#xdd;" glyph-name="Yacute" d="M169 0L211 208L88 653H230L268 481Q276 443 284 402T301 322H305Q326 359 350 400T397 481L501 653H645L345 194L304 0H169ZM585 686L533 765L728 889L789 788L585 686Z" />
<glyph unicode="&#xde;" glyph-name="Thorn" d="M18 0L148 652H286L265 551H355Q399 551 437 542T504 512T548 458T564 378Q564 310 540 262T474 184T378 140T261 126H179L155 0H18ZM202 234H275Q349 234 388 265T428 358Q428 402 402 422T326 442H242L202 234Z" />
<glyph unicode="&#xdf;" glyph-name="germandbls" d="M354 -12Q315 -12 277 -1T205 36L261 128Q281 111 301 101T350 90Q379 90 398 106T417 148Q417 165 408 178T384 205T353 231T322 260T298 295T288 339Q288 373 304 397T341 444T377 489T394 545Q394 573 382
588T341 604Q301 604 275 571T237 477L143 0H6L107 504Q116 549 136 587T186 654T256 697T347 713Q383 713 415 704T472 677T511 631T526 563Q526 521 510 493T474 444T438 405T422 365Q422 344 441 326T483 287T525 236T544 162Q544 125 531 94T493 39T433 2T354
-12Z" />
<glyph unicode="&#xe0;" glyph-name="agrave" d="M197 -12Q122 -12 79 37T35 180Q35 248 56 307T115 411T200 482T301 508Q350 508 385 491T438 443H442L463 496H573L473 0H362L364 68H360Q325 30 282 9T197 -12ZM248 100Q277 100 310 118T372 176L408 349Q394
374 370 385T325 396Q295 396 268 381T221 339T188 276T176 197Q176 146 195 123T248 100ZM396 569L242 740L359 827L480 634L396 569Z" />
<glyph unicode="&#xe1;" glyph-name="aacute" d="M197 -12Q122 -12 79 37T35 180Q35 248 56 307T115 411T200 482T301 508Q350 508 385 491T438 443H442L463 496H573L473 0H362L364 68H360Q325 30 282 9T197 -12ZM248 100Q277 100 310 118T372 176L408 349Q394
374 370 385T325 396Q295 396 268 381T221 339T188 276T176 197Q176 146 195 123T248 100ZM343 578L283 656L468 822L550 718L343 578Z" />
<glyph unicode="&#xe2;" glyph-name="acircumflex" d="M197 -12Q122 -12 79 37T35 180Q35 248 56 307T115 411T200 482T301 508Q350 508 385 491T438 443H442L463 496H573L473 0H362L364 68H360Q325 30 282 9T197 -12ZM248 100Q277 100 310 118T372 176L408 349Q394
374 370 385T325 396Q295 396 268 381T221 339T188 276T176 197Q176 146 195 123T248 100ZM230 561L182 616L313 744H463L548 613L487 561L381 657H377L230 561Z" />
<glyph unicode="&#xe3;" glyph-name="atilde" d="M197 -12Q122 -12 79 37T35 180Q35 248 56 307T115 411T200 482T301 508Q350 508 385 491T438 443H442L463 496H573L473 0H362L364 68H360Q325 30 282 9T197 -12ZM248 100Q277 100 310 118T372 176L408 349Q394
374 370 385T325 396Q295 396 268 381T221 339T188 276T176 197Q176 146 195 123T248 100ZM439 573Q414 573 397 583T367 605T341 628T313 638Q298 638 286 625T269 582L179 587Q192 665 229 702T321 739Q346 739 362 729T392 707T418 685T446 675Q461 675 473
688T490 730L580 725Q567 647 530 610T439 573Z" />
<glyph unicode="&#xe4;" glyph-name="adieresis" d="M197 -12Q122 -12 79 37T35 180Q35 248 56 307T115 411T200 482T301 508Q350 508 385 491T438 443H442L463 496H573L473 0H362L364 68H360Q325 30 282 9T197 -12ZM248 100Q277 100 310 118T372 176L408 349Q394
374 370 385T325 396Q295 396 268 381T221 339T188 276T176 197Q176 146 195 123T248 100ZM262 572Q237 572 220 587T203 632Q203 662 224 685T279 708Q305 708 322 692T339 648Q339 616 317 594T262 572ZM473 572Q447 572 430 587T413 632Q413 662 435 685T489
708Q515 708 532 692T549 648Q549 616 527 594T473 572Z" />
<glyph unicode="&#xe5;" glyph-name="aring" d="M197 -12Q122 -12 79 37T35 180Q35 248 56 307T115 411T200 482T301 508Q350 508 385 491T438 443H442L463 496H573L473 0H362L364 68H360Q325 30 282 9T197 -12ZM248 100Q277 100 310 118T372 176L408 349Q394
374 370 385T325 396Q295 396 268 381T221 339T188 276T176 197Q176 146 195 123T248 100ZM365 566Q315 566 283 589T251 655Q251 679 261 700T291 736T337 761T395 770Q446 770 477 747T509 681Q509 657 499 636T469 600T423 575T365 566ZM374 619Q394 619 408
636T423 677Q423 693 414 705T386 717Q366 717 352 700T337 659Q337 642 346 631T374 619Z" />
<glyph unicode="&#xe6;" glyph-name="ae" d="M101 -12Q41 -12 11 21T-19 105Q-19 194 45 244T249 316Q256 352 244 376T198 401Q170 401 145 392T93 365L47 444Q84 472 130 490T232 508Q270 508 297 489T335 438Q366 474 402 491T476 508Q507 508 530 495T567
460T589 408T596 347Q596 296 587 262T570 210H335Q334 202 334 195T334 180Q334 138 353 116T407 93Q432 93 454 100T501 124L539 39Q509 15 470 2T395 -12Q344 -12 309 7T253 59Q217 24 180 6T101 -12ZM144 92Q164 92 186 104T227 134Q226 140 226 146T226 159Q226
180 227 198T231 232Q162 218 134 194T105 134Q105 113 115 103T144 92ZM448 403Q418 403 393 375T352 298H487Q489 309 490 320T491 342Q491 370 481 386T448 403Z" />
<glyph unicode="&#xe7;" glyph-name="ccedilla" d="M298 -12Q249 -12 206 1T131 42T79 110T60 205Q60 273 84 329T151 424T248 486T363 508Q396 508 425 501T478 481T521 452T554 418L471 342Q423 396 353 396Q324 396 297 383T247 345T212 289T199 218Q199 188
208 166T234 129T272 107T318 100Q355 100 384 116T443 156L491 63Q454 28 405 8T298 -12ZM132 -239V-180Q190 -178 214 -168T243 -135Q244 -120 230 -110T173 -94L244 11H330L284 -61Q322 -70 337 -87T348 -134Q340 -186 284 -211T132 -239Z" />
<glyph unicode="&#xe8;" glyph-name="egrave" d="M267 -12Q219 -12 179 1T109 42T63 110T46 208Q46 275 69 330T133 425T225 486T334 508Q382 508 420 494T483 454T522 392T536 313Q536 282 530 252T519 210H183Q184 177 193 155T218 119T254 99T299 93Q341 93
377 107T447 145L493 54Q449 23 392 6T267 -12ZM330 403Q312 403 293 397T256 377T223 344T197 298H409Q410 303 410 307T410 316Q410 359 389 381T330 403ZM389 569L235 740L352 827L473 634L389 569Z" />
<glyph unicode="&#xe9;" glyph-name="eacute" d="M267 -12Q219 -12 179 1T109 42T63 110T46 208Q46 275 69 330T133 425T225 486T334 508Q382 508 420 494T483 454T522 392T536 313Q536 282 530 252T519 210H183Q184 177 193 155T218 119T254 99T299 93Q341 93
377 107T447 145L493 54Q449 23 392 6T267 -12ZM330 403Q312 403 293 397T256 377T223 344T197 298H409Q410 303 410 307T410 316Q410 359 389 381T330 403ZM336 578L276 656L461 822L543 718L336 578Z" />
<glyph unicode="&#xea;" glyph-name="ecircumflex" d="M267 -12Q219 -12 179 1T109 42T63 110T46 208Q46 275 69 330T133 425T225 486T334 508Q382 508 420 494T483 454T522 392T536 313Q536 282 530 252T519 210H183Q184 177 193 155T218 119T254 99T299 93Q341
93 377 107T447 145L493 54Q449 23 392 6T267 -12ZM330 403Q312 403 293 397T256 377T223 344T197 298H409Q410 303 410 307T410 316Q410 359 389 381T330 403ZM223 561L175 616L306 744H456L541 613L480 561L374 657H370L223 561Z" />
<glyph unicode="&#xeb;" glyph-name="edieresis" d="M267 -12Q219 -12 179 1T109 42T63 110T46 208Q46 275 69 330T133 425T225 486T334 508Q382 508 420 494T483 454T522 392T536 313Q536 282 530 252T519 210H183Q184 177 193 155T218 119T254 99T299 93Q341
93 377 107T447 145L493 54Q449 23 392 6T267 -12ZM330 403Q312 403 293 397T256 377T223 344T197 298H409Q410 303 410 307T410 316Q410 359 389 381T330 403ZM255 572Q230 572 213 587T196 632Q196 662 217 685T272 708Q298 708 315 692T332 648Q332 616 310
594T255 572ZM466 572Q440 572 423 587T406 632Q406 662 428 685T482 708Q508 708 525 692T542 648Q542 616 520 594T466 572Z" />
<glyph unicode="&#xec;" glyph-name="igrave" d="M342 -12Q270 -12 227 25T184 130Q184 144 186 158T194 190L243 389H80L102 496H402L328 183Q326 176 325 170T324 157Q324 126 341 113T384 100Q402 100 420 105T462 120L490 17Q458 3 423 -4T342 -12ZM624 569L470
740L587 827L708 634L624 569Z" />
<glyph unicode="&#xed;" glyph-name="iacute" d="M342 -12Q270 -12 227 25T184 130Q184 144 186 158T194 190L243 389H80L102 496H402L328 183Q326 176 325 170T324 157Q324 126 341 113T384 100Q402 100 420 105T462 120L490 17Q458 3 423 -4T342 -12ZM571 578L511
656L696 822L778 718L571 578Z" />
<glyph unicode="&#xee;" glyph-name="icircumflex" d="M342 -12Q270 -12 227 25T184 130Q184 144 186 158T194 190L243 389H80L102 496H402L328 183Q326 176 325 170T324 157Q324 126 341 113T384 100Q402 100 420 105T462 120L490 17Q458 3 423 -4T342 -12ZM458
561L410 616L541 744H691L776 613L715 561L609 657H605L458 561Z" />
<glyph unicode="&#xef;" glyph-name="idieresis" d="M342 -12Q270 -12 227 25T184 130Q184 144 186 158T194 190L243 389H80L102 496H402L328 183Q326 176 325 170T324 157Q324 126 341 113T384 100Q402 100 420 105T462 120L490 17Q458 3 423 -4T342 -12ZM490
572Q465 572 448 587T431 632Q431 662 452 685T507 708Q533 708 550 692T567 648Q567 616 545 594T490 572ZM701 572Q675 572 658 587T641 632Q641 662 663 685T717 708Q743 708 760 692T777 648Q777 616 755 594T701 572Z" />
<glyph unicode="&#xf0;" glyph-name="eth" d="M241 -12Q196 -12 157 1T89 40T43 104T26 194Q26 254 47 302T103 383T183 434T279 452Q332 452 366 435T420 393Q410 486 355 551L216 486L189 550L300 602Q263 630 218 653L276 749Q316 732 352 709T419 657L565
726L591 661L468 603Q509 549 531 484T554 339Q554 255 531 190T467 79T368 11T241 -12ZM254 98Q319 98 365 147T421 297Q399 326 371 339T304 353Q270 353 243 341T197 309T168 261T158 203Q158 152 183 125T254 98Z" />
<glyph unicode="&#xf1;" glyph-name="ntilde" d="M16 0L113 496H224L218 411H222Q241 429 263 446T311 477T362 499T416 508Q479 508 511 476T544 381Q544 346 536 306L475 0H338L396 290Q399 305 401 317T403 341Q403 391 352 391Q320 391 284 369T212 303L153
0H16ZM444 573Q419 573 402 583T372 605T346 628T318 638Q303 638 291 625T274 582L184 587Q197 665 234 702T326 739Q351 739 367 729T397 707T423 685T451 675Q466 675 478 688T495 730L585 725Q572 647 535 610T444 573Z" />
<glyph unicode="&#xf2;" glyph-name="ograve" d="M254 -12Q203 -12 163 4T94 49T50 118T35 209Q35 276 59 331T123 425T215 486T323 508Q374 508 415 492T484 447T528 378T543 287Q543 220 519 165T455 71T363 10T254 -12ZM264 100Q291 100 316 113T360 151T392
209T404 283Q404 337 380 366T313 396Q286 396 261 383T216 345T185 287T173 213Q173 159 197 130T264 100ZM387 569L233 740L350 827L471 634L387 569Z" />
<glyph unicode="&#xf3;" glyph-name="oacute" d="M254 -12Q203 -12 163 4T94 49T50 118T35 209Q35 276 59 331T123 425T215 486T323 508Q374 508 415 492T484 447T528 378T543 287Q543 220 519 165T455 71T363 10T254 -12ZM264 100Q291 100 316 113T360 151T392
209T404 283Q404 337 380 366T313 396Q286 396 261 383T216 345T185 287T173 213Q173 159 197 130T264 100ZM334 578L274 656L459 822L541 718L334 578Z" />
<glyph unicode="&#xf4;" glyph-name="ocircumflex" d="M254 -12Q203 -12 163 4T94 49T50 118T35 209Q35 276 59 331T123 425T215 486T323 508Q374 508 415 492T484 447T528 378T543 287Q543 220 519 165T455 71T363 10T254 -12ZM264 100Q291 100 316 113T360 151T392
209T404 283Q404 337 380 366T313 396Q286 396 261 383T216 345T185 287T173 213Q173 159 197 130T264 100ZM221 561L173 616L304 744H454L539 613L478 561L372 657H368L221 561Z" />
<glyph unicode="&#xf5;" glyph-name="otilde" d="M254 -12Q203 -12 163 4T94 49T50 118T35 209Q35 276 59 331T123 425T215 486T323 508Q374 508 415 492T484 447T528 378T543 287Q543 220 519 165T455 71T363 10T254 -12ZM264 100Q291 100 316 113T360 151T392
209T404 283Q404 337 380 366T313 396Q286 396 261 383T216 345T185 287T173 213Q173 159 197 130T264 100ZM430 573Q405 573 388 583T358 605T332 628T304 638Q289 638 277 625T260 582L170 587Q183 665 220 702T312 739Q337 739 353 729T383 707T409 685T437
675Q452 675 464 688T481 730L571 725Q558 647 521 610T430 573Z" />
<glyph unicode="&#xf6;" glyph-name="odieresis" d="M254 -12Q203 -12 163 4T94 49T50 118T35 209Q35 276 59 331T123 425T215 486T323 508Q374 508 415 492T484 447T528 378T543 287Q543 220 519 165T455 71T363 10T254 -12ZM264 100Q291 100 316 113T360 151T392
209T404 283Q404 337 380 366T313 396Q286 396 261 383T216 345T185 287T173 213Q173 159 197 130T264 100ZM253 572Q228 572 211 587T194 632Q194 662 215 685T270 708Q296 708 313 692T330 648Q330 616 308 594T253 572ZM464 572Q438 572 421 587T404 632Q404
662 426 685T480 708Q506 708 523 692T540 648Q540 616 518 594T464 572Z" />
<glyph unicode="&#xf7;" glyph-name="divide" d="M300 436Q268 436 246 457T223 510Q223 542 245 562T300 583Q332 583 354 563T377 510Q377 478 355 457T300 436ZM300 76Q268 76 246 97T223 150Q223 182 245 202T300 223Q332 223 354 203T377 150Q377 118 355
97T300 76ZM73 282V378H527V282H73Z" />
<glyph unicode="&#xf8;" glyph-name="oslash" d="M254 -12Q165 -12 110 34L46 -27L1 18L67 81Q51 107 43 139T34 209Q34 276 58 331T122 425T214 486T323 508Q412 508 467 462L531 523L576 478L510 415Q526 389 534 357T543 287Q543 220 519 165T455 71T363 10T254
-12ZM166 207Q166 199 166 192T168 177L380 379Q356 401 319 401Q285 401 257 386T209 345T177 284T166 207ZM258 95Q292 95 320 110T369 151T400 213T411 289Q411 297 411 304T409 319L198 117Q222 95 258 95Z" />
<glyph unicode="&#xf9;" glyph-name="ugrave" d="M167 -12Q104 -12 72 20T39 116Q39 150 47 190L108 496H245L187 206Q184 191 182 179T179 156Q179 105 231 105Q296 105 368 194L427 496H564L466 0H355L361 85H357Q339 67 317 50T271 19T220 -3T167 -12ZM639
569L485 740L602 827L723 634L639 569Z" />
<glyph unicode="&#xfa;" glyph-name="uacute" d="M167 -12Q104 -12 72 20T39 116Q39 150 47 190L108 496H245L187 206Q184 191 182 179T179 156Q179 105 231 105Q296 105 368 194L427 496H564L466 0H355L361 85H357Q339 67 317 50T271 19T220 -3T167 -12ZM586
578L526 656L711 822L793 718L586 578Z" />
<glyph unicode="&#xfb;" glyph-name="ucircumflex" d="M167 -12Q104 -12 72 20T39 116Q39 150 47 190L108 496H245L187 206Q184 191 182 179T179 156Q179 105 231 105Q296 105 368 194L427 496H564L466 0H355L361 85H357Q339 67 317 50T271 19T220 -3T167 -12ZM473
561L425 616L556 744H706L791 613L730 561L624 657H620L473 561Z" />
<glyph unicode="&#xfc;" glyph-name="udieresis" d="M167 -12Q104 -12 72 20T39 116Q39 150 47 190L108 496H245L187 206Q184 191 182 179T179 156Q179 105 231 105Q296 105 368 194L427 496H564L466 0H355L361 85H357Q339 67 317 50T271 19T220 -3T167 -12ZM505
572Q480 572 463 587T446 632Q446 662 467 685T522 708Q548 708 565 692T582 648Q582 616 560 594T505 572ZM716 572Q690 572 673 587T656 632Q656 662 678 685T732 708Q758 708 775 692T792 648Q792 616 770 594T716 572Z" />
<glyph unicode="&#xfd;" glyph-name="yacute" d="M44 -194Q17 -194 -8 -187T-48 -170L-10 -77Q2 -83 19 -87T52 -92Q92 -92 118 -77T165 -27L183 2L70 496H202L243 280Q246 262 249 242T255 200T260 160T265 124H269Q276 140 286 159T306 200T327 241T347 280L465
496H604L307 -14Q253 -107 192 -150T44 -194ZM581 578L521 656L706 822L788 718L581 578Z" />
<glyph unicode="&#xfe;" glyph-name="thorn" d="M-22 -184L156 701H293L261 542L232 436H234Q268 469 309 488T390 508Q468 508 511 458T554 314Q554 246 535 187T481 83T396 14T287 -12Q247 -12 212 3T157 47H155L141 -50L115 -184H-22ZM273 100Q301 100 326
115T371 156T401 218T412 297Q412 349 391 372T337 396Q309 396 278 377T218 316L182 146Q197 121 222 111T273 100Z" />
<glyph unicode="&#xff;" glyph-name="ydieresis" d="M44 -194Q17 -194 -8 -187T-48 -170L-10 -77Q2 -83 19 -87T52 -92Q92 -92 118 -77T165 -27L183 2L70 496H202L243 280Q246 262 249 242T255 200T260 160T265 124H269Q276 140 286 159T306 200T327 241T347 280L465
496H604L307 -14Q253 -107 192 -150T44 -194ZM500 572Q475 572 458 587T441 632Q441 662 462 685T517 708Q543 708 560 692T577 648Q577 616 555 594T500 572ZM711 572Q685 572 668 587T651 632Q651 662 673 685T727 708Q753 708 770 692T787 648Q787 616 765 594T711
572Z" />
<glyph unicode="&#x2013;" glyph-name="endash" d="M59 202L80 305H520L499 202H59Z" />
<glyph unicode="&#x2014;" glyph-name="emdash" d="M-21 202L0 305H600L579 202H-21Z" />
<glyph unicode="&#x2018;" glyph-name="quoteleft" d="M316 313Q270 313 243 342T216 429Q216 478 234 520T285 597T364 655T466 692L482 622Q421 608 383 576T333 505Q345 508 356 508Q385 508 404 487T424 427Q424 403 416 382T393 346T358 322T316 313Z" />
<glyph unicode="&#x2019;" glyph-name="quoteright" d="M215 317L199 388Q260 402 297 434T348 505Q336 502 324 502Q296 502 276 522T256 583Q256 607 264 628T287 664T322 688T365 697Q411 697 438 668T465 581Q465 532 447 490T395 413T316 355T215 317Z" />
<glyph unicode="&#x201a;" glyph-name="quotesinglbase" d="M197 -203L181 -132Q242 -118 279 -86T330 -15Q318 -18 306 -18Q278 -18 258 2T238 63Q238 87 246 108T269 144T304 168T347 177Q393 177 420 148T447 61Q447 12 429 -30T377 -107T298 -165T197 -203Z" />
<glyph unicode="&#x201c;" glyph-name="quotedblleft" d="M184 313Q138 313 111 342T84 429Q84 478 102 520T153 597T232 655T334 692L350 622Q289 608 251 576T201 505Q213 508 224 508Q253 508 272 487T292 427Q292 403 284 382T261 346T226 322T184 313ZM449
313Q403 313 376 342T349 429Q349 478 367 520T418 597T497 655T599 692L615 622Q554 608 516 576T466 505Q478 508 489 508Q518 508 537 487T557 427Q557 403 549 382T526 346T491 322T449 313Z" />
<glyph unicode="&#x201d;" glyph-name="quotedblright" d="M83 317L67 388Q128 402 165 434T216 505Q204 502 192 502Q164 502 144 522T124 583Q124 607 132 628T155 664T190 688T233 697Q279 697 306 668T333 581Q333 532 315 490T263 413T184 355T83 317ZM348
317L332 388Q393 402 430 434T481 505Q469 502 457 502Q429 502 409 522T389 583Q389 607 397 628T420 664T455 688T498 697Q544 697 571 668T598 581Q598 532 580 490T528 413T449 355T348 317Z" />
<glyph unicode="&#x201e;" glyph-name="quotedblbase" d="M83 -203L67 -132Q128 -118 165 -86T216 -15Q204 -18 192 -18Q164 -18 144 2T124 63Q124 87 132 108T155 144T190 168T233 177Q279 177 306 148T333 61Q333 12 315 -30T263 -107T184 -165T83 -203ZM348
-203L332 -132Q393 -118 430 -86T481 -15Q469 -18 457 -18Q429 -18 409 2T389 63Q389 87 397 108T420 144T455 168T498 177Q544 177 571 148T598 61Q598 12 580 -30T528 -107T449 -165T348 -203Z" />
<glyph unicode="&#x2022;" glyph-name="bullet" d="M267 104Q206 104 167 140T128 235Q128 277 143 311T184 369T245 407T319 420Q349 420 373 411T416 384T444 342T454 289Q454 247 439 213T399 155T339 117T267 104Z" />
<glyph unicode="&#x2039;" glyph-name="guilsinglleft" d="M307 29L174 201L194 311L395 474L444 419L298 245L376 80L307 29Z" />
<glyph unicode="&#x203a;" glyph-name="guilsinglright" d="M184 29L136 84L282 259L204 424L273 474L405 302L386 192L184 29Z" />
</font>
</defs>
</svg>
